  0
SECTION
  2
HEADER
  9
$ACADVER
  1
AC1006
  9
$DWGCODEPAGE
  3
ansi_950
  9
$INSBASE
 10
0.0
 20
0.0
 30
0.0
  9
$EXTMIN
 10
139.9850475275715
 20
-0.0090630292066862
  9
$EXTMAX
 10
280.014954428206
 20
95.00138900615434
  9
$LIMMIN
 10
0.0
 20
0.0
  9
$LIMMAX
 10
420.0
 20
297.0
  9
$ORTHOMODE
 70
     1
  9
$REGENMODE
 70
     1
  9
$FILLMODE
 70
     1
  9
$QTEXTMODE
 70
     0
  9
$MIRRTEXT
 70
     1
  9
$DRAGMODE
 70
     2
  9
$LTSCALE
 40
1.0
  9
$OSMODE
 70
    37
  9
$ATTMODE
 70
     1
  9
$TEXTSIZE
 40
6.0
  9
$TRACEWID
 40
1.0
  9
$TEXTSTYLE
  7
STANDARD
  9
$CLAYER
  8
標註線
  9
$CELTYPE
  6
BYLAYER
  9
$CECOLOR
 62
   256
  9
$DIMSCALE
 40
1.0
  9
$DIMASZ
 40
1.25
  9
$DIMEXO
 40
0.42
  9
$DIMDLI
 40
1.5
  9
$DIMRND
 40
0.0
  9
$DIMDLE
 40
0.0
  9
$DIMEXE
 40
0.42
  9
$DIMTP
 40
0.0
  9
$DIMTM
 40
0.0
  9
$DIMTXT
 40
1.25
  9
$DIMCEN
 40
2.5
  9
$DIMTSZ
 40
0.0
  9
$DIMTOL
 70
     0
  9
$DIMLIM
 70
     0
  9
$DIMTIH
 70
     0
  9
$DIMTOH
 70
     0
  9
$DIMSE1
 70
     0
  9
$DIMSE2
 70
     0
  9
$DIMTAD
 70
     3
  9
$DIMZIN
 70
     8
  9
$DIMBLK
  1
OPEN30
  9
$DIMASO
 70
     1
  9
$DIMSHO
 70
     1
  9
$DIMPOST
  1

  9
$DIMAPOST
  1

  9
$DIMALT
 70
     0
  9
$DIMALTD
 70
     3
  9
$DIMALTF
 40
0.03937007874016
  9
$DIMLFAC
 40
1.0
  9
$DIMTOFL
 70
     1
  9
$DIMTVP
 40
0.0
  9
$DIMTIX
 70
     0
  9
$DIMSOXD
 70
     0
  9
$DIMSAH
 70
     0
  9
$DIMBLK1
  1

  9
$DIMBLK2
  1

  9
$LUNITS
 70
     2
  9
$LUPREC
 70
     4
  9
$SKETCHINC
 40
1.0
  9
$FILLETRAD
 40
10.0
  9
$AUNITS
 70
     0
  9
$AUPREC
 70
     0
  9
$MENU
  1
.
  9
$ELEVATION
 40
0.0
  9
$THICKNESS
 40
0.0
  9
$LIMCHECK
 70
     0
  9
$CHAMFERA
 40
0.2
  9
$CHAMFERB
 40
0.2
  9
$SKPOLY
 70
     0
  9
$TDCREATE
 40
2453388.513071273
  9
$TDUPDATE
 40
2460773.473270764
  9
$TDINDWG
 40
0.5553810532
  9
$TDUSRTIMER
 40
0.5553809375
  9
$USRTIMER
 70
     1
  9
$ANGBASE
 50
0.0
  9
$ANGDIR
 70
     0
  9
$PDMODE
 70
     0
  9
$PDSIZE
 40
0.0
  9
$PLINEWID
 40
0.3
  9
$COORDS
 70
     1
  9
$SPLFRAME
 70
     0
  9
$SPLINETYPE
 70
     6
  9
$SPLINESEGS
 70
     8
  9
$ATTDIA
 70
     0
  9
$ATTREQ
 70
     1
  9
$HANDLING
 70
     1
  9
$HANDSEED
  5
5ACC
  9
$SURFTAB1
 70
     6
  9
$SURFTAB2
 70
     6
  9
$SURFTYPE
 70
     6
  9
$SURFU
 70
     6
  9
$SURFV
 70
     6
  9
$UCSNAME
  2

  9
$UCSORG
 10
0.0
 20
0.0
 30
0.0
  9
$UCSXDIR
 10
1.0
 20
0.0
 30
0.0
  9
$UCSYDIR
 10
0.0
 20
1.0
 30
0.0
  9
$USERI1
 70
     0
  9
$USERI2
 70
     0
  9
$USERI3
 70
     0
  9
$USERI4
 70
     0
  9
$USERI5
 70
     0
  9
$USERR1
 40
0.0
  9
$USERR2
 40
0.0
  9
$USERR3
 40
0.0
  9
$USERR4
 40
0.0
  9
$USERR5
 40
0.0
  9
$WORLDVIEW
 70
     1
  0
ENDSEC
  0
SECTION
  2
TABLES
  0
TABLE
  2
VPORT
 70
     1
  0
VPORT
  2
*ACTIVE
 70
     0
 10
0.0
 20
0.0
 11
1.0
 21
1.0
 12
210.0000009778888
 22
47.49616298847383
 13
0.0
 23
0.0
 14
10.0
 24
10.0
 15
10.0
 25
10.0
 16
0.0
 26
0.0
 36
1.0
 17
0.0
 27
0.0
 37
0.0
 40
95.6890981213279
 41
1.764004767580453
 42
50.0
 43
0.0
 44
0.0
 50
0.0
 51
0.0
 71
     0
 72
 20000
 73
     1
 74
     3
 75
     0
 76
     0
 77
     0
 78
     0
  0
ENDTAB
  0
TABLE
  2
LTYPE
 70
    19
  0
LTYPE
  2
CONTINUOUS
 70
     0
  3
Solid line
 72
    65
 73
     0
 40
0.0
  0
LTYPE
  2
CENTER
 70
     0
  3
Center ____ _ ____ _ ____ _ ____ _ ____ _ ____
 72
    65
 73
     4
 40
50.8
 49
31.75
 49
-6.35
 49
6.35
 49
-6.35
  0
LTYPE
  2
HIDDEN
 70
     0
  3
Hidden __ __ __ __ __ __ __ __ __ __ __ __ __ _
 72
    65
 73
     2
 40
9.524999999999999
 49
6.35
 49
-3.175
  0
LTYPE
  2
CENTERX2
 70
     0
  3
Center (2x) ________  __  ________  __  _____
 72
    65
 73
     4
 40
101.6
 49
63.5
 49
-12.7
 49
12.7
 49
-12.7
  0
LTYPE
  2
PHANTOM
 70
     0
  3
Phantom ______  __  __  ______  __  __  ______
 72
    65
 73
     6
 40
63.5
 49
31.75
 49
-6.35
 49
6.35
 49
-6.35
 49
6.35
 49
-6.35
  0
LTYPE
  2
HIDDEN2
 70
     0
  3
Hidden (.5x) _ _ _ _ _ _ _ _ _ _ _ _ _ _ _ _ _
 72
    65
 73
     2
 40
4.762499999999999
 49
3.175
 49
-1.5875
  0
LTYPE
  2
HIDDENX2
 70
     0
  3
Hidden (2x) ____ ____ ____ ____ ____ ____ ____
 72
    65
 73
     2
 40
19.05
 49
12.7
 49
-6.35
  0
LTYPE
  2
CENTER2
 70
     0
  3
Center (.5x) ___ _ ___ _ ___ _ ___ _ ___ _ ___
 72
    65
 73
     4
 40
1.125
 49
0.75
 49
-0.125
 49
0.125
 49
-0.125
  0
LTYPE
  2
PHANTOM2
 70
     0
  3
Phantom (.5x) ___ _ _ ___ _ _ ___ _ _ ___ _ _
 72
    65
 73
     6
 40
1.25
 49
0.625
 49
-0.125
 49
0.125
 49
-0.125
 49
0.125
 49
-0.125
  0
LTYPE
  2
AM_ISO02W050
 70
     0
  3
__ __ __ __ __ __ __ __ __ __ __ __ __ __ __
 72
    65
 73
     2
 40
7.5
 49
6.0
 49
-1.5
  0
LTYPE
  2
AM_ISO08W050
 70
     0
  3
____ . ____ . ____ . ____ . ____ . ____ . ____
 72
    65
 73
     4
 40
18.0
 49
12.0
 49
-1.5
 49
3.0
 49
-1.5
  0
LTYPE
  2
AM_ISO09W050
 70
     0
  3
_____ . . _____ . . _____ . . ____ .. ____
 72
    65
 73
     6
 40
22.5
 49
12.0
 49
-1.5
 49
3.0
 49
-1.5
 49
3.0
 49
-1.5
  0
LTYPE
  2
AMCONSTR
 70
     0
  3
_______________________
 72
    65
 73
     2
 40
9999.0
 49
9999.0
 49
0.0
  0
LTYPE
  2
AM_ISO08W050X2
 70
     0
  3
__ . __ . __ . __ . __ . __
 72
    65
 73
     4
 40
9.0
 49
6.0
 49
-0.75
 49
1.5
 49
-0.75
  0
LTYPE
  2
AM_ISO02W050X2
 70
     0
  3
 _ _ _ _ _ _ _ _ _ _ _ _
 72
    65
 73
     2
 40
3.75
 49
3.0
 49
-0.75
  0
LTYPE
  2
AMZIGZAG
 70
     0
  3
/\/-/\/-/\/-/\/-/\/-/\/
 72
    65
 73
     2
 40
11.0001
 49
0.0001
 49
-11.0
  0
LTYPE
  2
AMZIGZAG2
 70
     0
  3
/\/-/\/-/\/-/\/-/\/-/\/
 72
    65
 73
     2
 40
0.4401
 49
0.0001
 49
-0.44
  0
LTYPE
  2
ACANSTGB
 70
     0
  3
__ . . __ . .
 72
    65
 73
     6
 40
0.35433070866
 49
0.15748031496
 49
-0.03937007874
 49
0.03937007874
 49
-0.03937007874
 49
0.03937007874
 49
-0.03937007874
  0
LTYPE
  2
ACANSTGL
 70
     0
  3
_ _ _ _ _
 72
    65
 73
     2
 40
0.11811023622
 49
0.07874015748
 49
-0.03937007874
  0
ENDTAB
  0
TABLE
  2
LAYER
 70
    15
  0
LAYER
  2
0
 70
     0
 62
     7
  6
CONTINUOUS
  0
LAYER
  2
DEFPOINTS
 70
     0
 62
     7
  6
CONTINUOUS
  0
LAYER
  2
本體外線
 70
     0
 62
     2
  6
CONTINUOUS
  0
LAYER
  2
DIM
 70
     0
 62
     3
  6
CONTINUOUS
  0
LAYER
  2
圖框線
 70
     0
 62
     9
  6
CONTINUOUS
  0
LAYER
  2
剖面線
 70
     0
 62
     5
  6
CONTINUOUS
  0
LAYER
  2
中心線
 70
     0
 62
     1
  6
CENTER
  0
LAYER
  2
本體內線
 70
     0
 62
     4
  6
HIDDENX2
  0
LAYER
  2
1
 70
     0
 62
     7
  6
CONTINUOUS
  0
LAYER
  2
標註線
 70
     0
 62
     6
  6
CONTINUOUS
  0
LAYER
  2
CENTER
 70
     0
 62
     1
  6
CENTERX2
  0
LAYER
  2
MARK
 70
     0
 62
     6
  6
CONTINUOUS
  0
LAYER
  2
CONTOUR
 70
     0
 62
     2
  6
CONTINUOUS
  0
LAYER
  2
BOWEL
 70
     0
 62
     4
  6
HIDDEN2
  0
LAYER
  2
FRAME
 70
     0
 62
     9
  6
CONTINUOUS
  0
ENDTAB
  0
TABLE
  2
STYLE
 70
    10
  0
STYLE
  2
STANDARD
 70
     0
 40
0.0
 41
1.0
 50
0.0
 71
     0
 42
6.0
  3
txt.shx
  4
bigfont.shx
  0
STYLE
  2

 70
     1
 40
0.0
 41
1.0
 50
0.0
 71
     0
 42
6.0
  3
ltypeshp.shx
  4

  0
STYLE
  2
TXT
 70
     0
 40
0.0
 41
1.0
 50
0.0
 71
     0
 42
4.0
  3
txt.shx
  4
bigfont.shx
  0
STYLE
  2
JL
 70
     0
 40
10.0
 41
0.5
 50
0.0
 71
     0
 42
5.0
  3
MS Mincho.ttf
  4

  0
STYLE
  2
A
 70
     0
 40
1.0
 41
1.0
 50
0.0
 71
     0
 42
2.5
  3
MS Mincho.ttf
  4

  0
STYLE
  2

 70
     1
 40
0.0
 41
1.0
 50
0.0
 71
     0
 42
6.0
  3
genltshp.shx
  4

  0
STYLE
  2
ACANSTS
 70
     0
 40
1.0
 41
1.0
 50
0.0
 71
     0
 42
6.0
  3
romans.shx
  4
chineset.shx
  0
STYLE
  2
ACANSGDT
 70
     0
 40
0.0
 41
1.0
 50
0.0
 71
     0
 42
6.0
  3
amgdt.shx
  4

  0
STYLE
  2
JP
 70
     0
 40
1.0
 41
1.5
 50
0.0
 71
     0
 42
50.0
  3
txt.shx
  4
bigfont.shx
  0
STYLE
  2
TW
 70
     0
 40
0.0
 41
1.0
 50
0.0
 71
     0
 42
78.94484843234464
  3
txt.shx
  4
chineset.shx
  0
ENDTAB
  0
TABLE
  2
VIEW
 70
     0
  0
ENDTAB
  0
TABLE
  2
UCS
 70
     0
  0
ENDTAB
  0
ENDSEC
  0
SECTION
  2
BLOCKS
  0
BLOCK
  8
0
  2
A$C3C1D206B
 70
     0
 10
0.0
 20
0.0
 30
0.0
  0
TEXT
  5
1570
  8
1
  6
CONTINUOUS
 10
0.0000001670323395
 20
4.533333177874169
 30
0.0
 40
2.0
  1
P T
 50
270.0
  0
ENDBLK
  8
0
  0
BLOCK
  8
0
  2
A$C25EA59D9
 70
     0
 10
0.0
 20
0.0
 30
0.0
  0
TEXT
  5
1919
  8
0
  6
CONTINUOUS
 10
0.4468324226199911
 20
1.255555006238023
 30
0.0
 40
5.185405744200001
  1
N I K K I
 41
0.5
  7
JL
  0
ENDBLK
  8
0
  0
BLOCK
  8
0
  2
_DOTSMALL
 70
     0
 10
0.0
 20
0.0
 30
0.0
  0
POLYLINE
  5
1C26
  8
0
  6
BYBLOCK
 62
     0
 66
     1
 10
0.0
 20
0.0
 30
0.0
 70
     1
 40
0.5
 41
0.5
  0
VERTEX
  5
59FA
  8
0
  6
BYBLOCK
 62
     0
 10
-0.0625
 20
0.0
 30
0.0
 42
1.0
  0
VERTEX
  5
59FB
  8
0
  6
BYBLOCK
 62
     0
 10
0.0625
 20
0.0
 30
0.0
 42
1.0
  0
SEQEND
  5
5AC2
  8
0
  6
BYBLOCK
 62
     0
  0
ENDBLK
  8
0
  0
BLOCK
  8
0
  2
_OPEN30
 70
     0
 10
0.0
 20
0.0
 30
0.0
  0
LINE
  5
1E70
  8
0
 62
     0
 10
-1.0
 20
0.26794919
 30
0.0
 11
0.0
 21
0.0
 31
0.0
  0
LINE
  5
1E71
  8
0
 62
     0
 10
0.0
 20
0.0
 30
0.0
 11
-1.0
 21
-0.26794919
 31
0.0
  0
LINE
  5
1E72
  8
0
 62
     0
 10
0.0
 20
0.0
 30
0.0
 11
-1.0
 21
0.0
 31
0.0
  0
ENDBLK
  8
0
  0
BLOCK
  8
0
  2
_NONE
 70
     0
 10
0.0
 20
0.0
 30
0.0
  0
ENDBLK
  8
0
  0
BLOCK
  8
0
  2
GENAXEH
 70
     0
 10
0.0
 20
0.0
 30
0.0
  0
LINE
  5
531C
  8
0
 10
-1.0
 20
0.0
 30
0.0
 11
1.0
 21
0.0
 31
0.0
  0
ENDBLK
  8
0
  0
BLOCK
  8
0
  2
*D16
 70
     1
 10
0.0
 20
0.0
 30
0.0
  0
LINE
  5
532F
  8
MARK
 10
12.16886502371466
 20
60.38936512303796
 30
0.0
 11
12.16886502371466
 21
71.9470523976019
 31
0.0
  0
LINE
  5
5330
  8
MARK
 10
25.16886502371466
 20
67.13014658358831
 30
0.0
 11
25.16886502371466
 21
71.9470523976019
 31
0.0
  0
LINE
  5
5331
  8
MARK
 10
13.41886502371466
 20
71.5220523976019
 30
0.0
 11
23.91886502371466
 21
71.5220523976019
 31
0.0
  0
INSERT
  5
5332
  8
MARK
  2
_OPEN30
 10
12.16886502371466
 20
71.5220523976019
 30
0.0
 41
1.25
 42
1.25
 43
1.25
 50
180.0
  0
INSERT
  5
5333
  8
MARK
  2
_OPEN30
 10
25.16886502371466
 20
71.5220523976019
 30
0.0
 41
1.25
 42
1.25
 43
1.25
  0
TEXT
  5
5334
  8
MARK
  6
CONTINUOUS
 62
     3
 10
17.83553169038133
 20
71.9470523976019
 30
0.0
 40
1.25
  1
13
  0
POINT
  5
5335
  8
DEFPOINTS
 62
     0
 10
12.16886502371466
 20
59.96436512303796
 30
0.0
  0
POINT
  5
5336
  8
DEFPOINTS
 62
     0
 10
25.16886502371466
 20
66.70514658358832
 30
0.0
  0
POINT
  5
5337
  8
DEFPOINTS
 62
     0
 10
25.16886502371466
 20
71.5220523976019
 30
0.0
  0
ENDBLK
  8
0
  0
BLOCK
  8
0
  2
*D17
 70
     1
 10
0.0
 20
0.0
 30
0.0
  0
LINE
  5
533B
  8
MARK
 10
25.16886502371466
 20
67.13014658358831
 30
0.0
 11
25.16886502371466
 21
71.9470523976019
 31
0.0
  0
LINE
  5
533C
  8
MARK
 10
52.16886502371467
 20
53.27374012303842
 30
0.0
 11
52.16886502371467
 21
71.9470523976019
 31
0.0
  0
LINE
  5
533D
  8
MARK
 10
26.41886502371466
 20
71.5220523976019
 30
0.0
 11
50.91886502371467
 21
71.5220523976019
 31
0.0
  0
INSERT
  5
533E
  8
MARK
  2
_OPEN30
 10
25.16886502371466
 20
71.5220523976019
 30
0.0
 41
1.25
 42
1.25
 43
1.25
 50
180.0
  0
INSERT
  5
533F
  8
MARK
  2
_OPEN30
 10
52.16886502371467
 20
71.5220523976019
 30
0.0
 41
1.25
 42
1.25
 43
1.25
  0
TEXT
  5
5340
  8
MARK
  6
CONTINUOUS
 62
     3
 10
37.627198357048
 20
71.9470523976019
 30
0.0
 40
1.25
  1
27
  0
POINT
  5
5341
  8
DEFPOINTS
 62
     0
 10
25.16886502371466
 20
66.70514658358832
 30
0.0
  0
POINT
  5
5342
  8
DEFPOINTS
 62
     0
 10
52.16886502371467
 20
52.84874012303843
 30
0.0
  0
POINT
  5
5343
  8
DEFPOINTS
 62
     0
 10
52.16886502371467
 20
71.5220523976019
 30
0.0
  0
ENDBLK
  8
0
  0
BLOCK
  8
0
  2
*D18
 70
     1
 10
0.0
 20
0.0
 30
0.0
  0
LINE
  5
5347
  8
MARK
 10
52.38136502371445
 20
53.21680091964679
 30
0.0
 11
60.46714642500042
 21
67.2217851255694
 31
0.0
  0
LINE
  5
5348
  8
MARK
 10
72.29994931075643
 20
41.71680091964672
 30
0.0
 11
80.38573071204239
 21
55.72178512556931
 31
0.0
  0
LINE
  5
5349
  8
MARK
 10
61.33717817973096
 20
66.228724328961
 30
0.0
 11
79.09069895731184
 21
55.97872432896093
 31
0.0
  0
INSERT
  5
534A
  8
MARK
  2
_OPEN30
 10
60.25464642500042
 20
66.853724328961
 30
0.0
 41
1.25
 42
1.25
 43
1.25
 50
149.9999999999997
  0
INSERT
  5
534B
  8
MARK
  2
_OPEN30
 10
80.1732307120424
 20
55.35372432896092
 30
0.0
 41
1.25
 42
1.25
 43
1.25
 50
329.9999999999997
  0
TEXT
  5
534C
  8
MARK
  6
CONTINUOUS
 62
     3
 10
69.52432877291263
 20
61.9926184589027
 30
0.0
 40
1.25
  1
23
 50
329.9999999999997
  0
POINT
  5
534D
  8
DEFPOINTS
 62
     0
 10
52.16886502371445
 20
52.84874012303841
 30
0.0
  0
POINT
  5
534E
  8
DEFPOINTS
 62
     0
 10
72.08744931075643
 20
41.34874012303833
 30
0.0
  0
POINT
  5
534F
  8
DEFPOINTS
 62
     0
 10
80.1732307120424
 20
55.35372432896092
 30
0.0
  0
ENDBLK
  8
0
  0
BLOCK
  8
0
  2
*D19
 70
     1
 10
0.0
 20
0.0
 30
0.0
  0
LINE
  5
5353
  8
MARK
 10
80.83361442738578
 20
36.29913933857573
 30
0.0
 11
85.39788803866749
 21
33.66395474044713
 31
0.0
  0
LINE
  5
5354
  8
MARK
 10
52.59386502371467
 20
52.84874012303844
 30
0.0
 11
90.5384357888972
 21
52.84874012303845
 31
0.0
  0
ARC
  5
5355
  8
MARK
 10
52.16886502371443
 20
52.84874012303844
 30
0.0
 40
37.94457076518277
 50
331.8875681508405
 51
358.1124318491596
  0
INSERT
  5
5356
  8
MARK
  2
_OPEN30
 10
85.0298272420591
 20
33.87645474044713
 30
0.0
 41
1.25
 42
1.25
 43
1.25
 50
240.9437840754204
  0
INSERT
  5
5357
  8
MARK
  2
_OPEN30
 10
90.1134357888972
 20
52.84874012303845
 30
0.0
 41
1.25
 42
1.25
 43
1.25
 50
89.05621592457977
  0
TEXT
  5
5358
  8
MARK
  6
CONTINUOUS
 62
     3
 10
88.05950329350847
 20
41.8299360885043
 30
0.0
 40
1.25
  1
30°
 50
75.00000000000014
  0
POINT
  5
5359
  8
DEFPOINTS
 62
     0
 10
87.8250981706454
 20
39.8709325914997
 30
0.0
  0
POINT
  5
535A
  8
DEFPOINTS
 62
     0
 10
10.16886502371466
 20
52.8487401230384
 30
0.0
  0
POINT
  5
535B
  8
DEFPOINTS
 62
     0
 10
80.4655536307774
 20
36.51163933857573
 30
0.0
  0
POINT
  5
535C
  8
DEFPOINTS
 62
     0
 10
52.16886502371445
 20
52.84874012303841
 30
0.0
  0
POINT
  5
535D
  8
DEFPOINTS
 62
     0
 10
52.16886502371467
 20
52.84874012303843
 30
0.0
  0
ENDBLK
  8
0
  0
BLOCK
  8
0
  2
*D20
 70
     1
 10
0.0
 20
0.0
 30
0.0
  0
LINE
  5
5361
  8
MARK
 10
103.5140889980683
 20
60.20194335331308
 30
0.0
 11
103.5140889980683
 21
71.9470523976019
 31
0.0
  0
LINE
  5
5362
  8
MARK
 10
127.5140889980674
 20
60.20194335331305
 30
0.0
 11
127.5140889980674
 21
71.9470523976019
 31
0.0
  0
LINE
  5
5363
  8
MARK
 10
104.7640889980683
 20
71.5220523976019
 30
0.0
 11
126.2640889980674
 21
71.5220523976019
 31
0.0
  0
INSERT
  5
5364
  8
MARK
  2
_OPEN30
 10
103.5140889980683
 20
71.5220523976019
 30
0.0
 41
1.25
 42
1.25
 43
1.25
 50
180.0
  0
INSERT
  5
5365
  8
MARK
  2
_OPEN30
 10
127.5140889980674
 20
71.5220523976019
 30
0.0
 41
1.25
 42
1.25
 43
1.25
  0
TEXT
  5
5366
  8
MARK
  6
CONTINUOUS
 62
     3
 10
114.4724223314012
 20
71.9470523976019
 30
0.0
 40
1.25
  1
24
  0
POINT
  5
5367
  8
DEFPOINTS
 62
     0
 10
103.5140889980683
 20
59.77694335331308
 30
0.0
  0
POINT
  5
5368
  8
DEFPOINTS
 62
     0
 10
127.5140889980674
 20
59.77694335331305
 30
0.0
  0
POINT
  5
5369
  8
DEFPOINTS
 62
     0
 10
127.5140889980674
 20
71.5220523976019
 30
0.0
  0
ENDBLK
  8
0
  0
BLOCK
  8
0
  2
*D21
 70
     1
 10
0.0
 20
0.0
 30
0.0
  0
LINE
  5
536D
  8
MARK
 10
46.52273999395568
 20
44.65359864261531
 30
0.0
 11
47.27467090470834
 21
44.1270909506934
 31
0.0
  0
ARC
  5
536E
  8
MARK
 10
34.81886502371977
 20
52.84874012303843
 30
0.0
 40
14.78073130205634
 50
329.8469242034833
 51
355.1530757965168
  0
INSERT
  5
536F
  8
MARK
  2
_OPEN30
 10
46.92653128588552
 20
44.37086093614259
 30
0.0
 41
1.25
 42
1.25
 43
1.25
 50
237.4234621017416
  0
INSERT
  5
5370
  8
MARK
  2
_OPEN30
 10
49.59959632577612
 20
52.84874012303843
 30
0.0
 41
1.25
 42
1.25
 43
1.25
 50
87.57653789825837
  0
POINT
  5
5371
  8
DEFPOINTS
 62
     0
 10
49.29423560722518
 20
49.85981652184444
 30
0.0
  0
POINT
  5
5372
  8
DEFPOINTS
 62
     0
 10
10.16886502371466
 20
52.84874012303841
 30
0.0
  0
POINT
  5
5373
  8
DEFPOINTS
 62
     0
 10
34.81886502371476
 20
52.84874012304194
 30
0.0
  0
POINT
  5
5374
  8
DEFPOINTS
 62
     0
 10
46.17460037513287
 20
44.89736862806451
 30
0.0
  0
POINT
  5
5375
  8
DEFPOINTS
 62
     0
 10
52.16886502371467
 20
52.84874012303843
 30
0.0
  0
ENDBLK
  8
0
  0
BLOCK
  8
0
  2
*D22
 70
     1
 10
0.0
 20
0.0
 30
0.0
  0
LINE
  5
5379
  8
MARK
 10
46.52273999395568
 20
61.04388160346153
 30
0.0
 11
47.27467090470836
 21
61.57038929538344
 31
0.0
  0
ARC
  5
537A
  8
MARK
 10
34.81886502371977
 20
52.84874012303842
 30
0.0
 40
14.78073130205636
 50
4.84692420348319
 51
30.15307579651673
  0
INSERT
  5
537B
  8
MARK
  2
_OPEN30
 10
49.59959632577613
 20
52.84874012303841
 30
0.0
 41
1.25
 42
1.25
 43
1.25
 50
272.4234621017416
  0
INSERT
  5
537C
  8
MARK
  2
_OPEN30
 10
46.92653128588554
 20
61.32661930993424
 30
0.0
 41
1.25
 42
1.25
 43
1.25
 50
122.5765378982583
  0
POINT
  5
537D
  8
DEFPOINTS
 62
     0
 10
49.2942356072252
 20
55.83766372423241
 30
0.0
  0
POINT
  5
537E
  8
DEFPOINTS
 62
     0
 10
10.16886502371466
 20
52.84874012303843
 30
0.0
  0
POINT
  5
537F
  8
DEFPOINTS
 62
     0
 10
34.81886502371476
 20
52.8487401230349
 30
0.0
  0
POINT
  5
5380
  8
DEFPOINTS
 62
     0
 10
46.17460037513286
 20
60.80011161801234
 30
0.0
  0
POINT
  5
5381
  8
DEFPOINTS
 62
     0
 10
52.16886502371469
 20
52.84874012303841
 30
0.0
  0
ENDBLK
  8
0
  0
BLOCK
  8
0
  2
*D23
 70
     1
 10
0.0
 20
0.0
 30
0.0
  0
LINE
  5
5385
  8
MARK
 10
73.78230502660804
 20
43.83431633439193
 30
0.0
 11
78.85742042398826
 21
40.90419709354596
 31
0.0
  0
LINE
  5
5386
  8
MARK
 10
70.78230502660782
 20
38.63816391168505
 30
0.0
 11
75.85742042398803
 21
35.70804467083908
 31
0.0
  0
LINE
  5
5387
  8
MARK
 10
77.86435962737987
 20
40.03416533881541
 30
0.0
 11
76.11435962737967
 21
37.00307642556962
 31
0.0
  0
INSERT
  5
5388
  8
MARK
  2
_OPEN30
 10
78.48935962737988
 20
41.11669709354597
 30
0.0
 41
1.25
 42
1.25
 43
1.25
 50
59.9999999999993
  0
INSERT
  5
5389
  8
MARK
  2
_OPEN30
 10
75.48935962737966
 20
35.92054467083908
 30
0.0
 41
1.25
 42
1.25
 43
1.25
 50
239.9999999999993
  0
TEXT
  5
538A
  8
MARK
  6
CONTINUOUS
 62
     3
 10
76.10046549743805
 20
37.82901108658375
 30
0.0
 40
1.25
  1
\U+22056
 50
59.99999999999932
  0
POINT
  5
538B
  8
DEFPOINTS
 62
     0
 10
73.41424422999965
 20
44.04681633439193
 30
0.0
  0
POINT
  5
538C
  8
DEFPOINTS
 62
     0
 10
70.41424422999943
 20
38.85066391168505
 30
0.0
  0
POINT
  5
538D
  8
DEFPOINTS
 62
     0
 10
75.48935962737966
 20
35.92054467083908
 30
0.0
  0
ENDBLK
  8
0
  0
BLOCK
  8
0
  2
*D24
 70
     1
 10
0.0
 20
0.0
 30
0.0
  0
LINE
  5
5391
  8
MARK
 10
70.28230502660787
 20
37.77213850790061
 30
0.0
 11
78.83361442738573
 21
32.83503772343783
 31
0.0
  0
LINE
  5
5392
  8
MARK
 10
74.282305026608
 20
44.70034173817645
 30
0.0
 11
82.83361442738585
 21
39.76324095371366
 31
0.0
  0
LINE
  5
5393
  8
MARK
 10
79.09055363077735
 20
34.13006947816838
 30
0.0
 11
81.84055363077748
 21
38.89320919898311
 31
0.0
  0
INSERT
  5
5394
  8
MARK
  2
_OPEN30
 10
78.46555363077735
 20
33.04753772343783
 30
0.0
 41
1.25
 42
1.25
 43
1.25
 50
240.0000000000004
  0
INSERT
  5
5395
  8
MARK
  2
_OPEN30
 10
82.46555363077746
 20
39.97574095371366
 30
0.0
 41
1.25
 42
1.25
 43
1.25
 50
60.00000000000045
  0
TEXT
  5
5396
  8
MARK
  6
CONTINUOUS
 62
     3
 10
79.57665950083569
 20
35.82202954296692
 30
0.0
 40
1.25
  1
\U+22058
 50
60.00000000000045
  0
POINT
  5
5397
  8
DEFPOINTS
 62
     0
 10
69.9142442299995
 20
37.98463850790061
 30
0.0
  0
POINT
  5
5398
  8
DEFPOINTS
 62
     0
 10
73.91424422999961
 20
44.91284173817644
 30
0.0
  0
POINT
  5
5399
  8
DEFPOINTS
 62
     0
 10
82.46555363077746
 20
39.97574095371366
 30
0.0
  0
ENDBLK
  8
0
  0
BLOCK
  8
0
  2
A$C17856F5A
 70
     0
 10
0.0
 20
0.0
 30
0.0
  0
POLYLINE
  5
53A4
  8
FRAME
 66
     1
 10
0.0
 20
0.0
 30
0.0
 70
     1
  0
VERTEX
  5
59FC
  8
FRAME
 10
139.9999999574728
 20
-0.0000001008491495
 30
0.0
  0
VERTEX
  5
59FD
  8
FRAME
 10
139.9999999574728
 20
94.99999989915085
 30
0.0
  0
VERTEX
  5
59FE
  8
FRAME
 10
-0.0000000425271196
 20
94.99999989915085
 30
0.0
  0
VERTEX
  5
59FF
  8
FRAME
 10
-0.0000000425271196
 20
-0.0000001008491495
 30
0.0
  0
SEQEND
  5
5AC3
  8
FRAME
  0
LINE
  5
53A5
  8
FRAME
 10
44.99999995747299
 20
4.999999899150851
 30
0.0
 11
139.9999999574728
 21
4.999999899150851
 31
0.0
  0
LINE
  5
53A6
  8
FRAME
 10
44.99999995747299
 20
9.99999989915085
 30
0.0
 11
97.49999995747277
 21
9.99999989915085
 31
0.0
  0
LINE
  5
53A7
  8
FRAME
 10
44.99999995747299
 20
14.99999989915085
 30
0.0
 11
139.9999999574728
 21
14.99999989915085
 31
0.0
  0
LINE
  5
53A8
  8
FRAME
 10
124.9999999574728
 20
-0.0000001008491495
 30
0.0
 11
124.9999999574728
 21
4.999999899150851
 31
0.0
  0
LINE
  5
53A9
  8
FRAME
 10
119.9999999574728
 20
4.999999899150851
 30
0.0
 11
119.9999999574728
 21
14.99999989915085
 31
0.0
  0
LINE
  5
53AA
  8
FRAME
 10
97.49999995747277
 20
14.99999989915085
 30
0.0
 11
97.49999995747277
 21
-0.0000001008491495
 31
0.0
  0
LINE
  5
53AB
  8
FRAME
 10
49.99999995747299
 20
14.99999989915085
 30
0.0
 11
49.99999995747299
 21
4.999999899150851
 31
0.0
  0
LINE
  5
53AC
  8
FRAME
 10
62.49999995747299
 20
14.99999989915085
 30
0.0
 11
62.49999995747299
 21
4.999999899150851
 31
0.0
  0
LINE
  5
53AD
  8
FRAME
 10
67.499999957473
 20
9.99999989915085
 30
0.0
 11
67.499999957473
 21
4.999999899150851
 31
0.0
  0
LINE
  5
53AE
  8
FRAME
 10
84.999999957473
 20
14.99999989915085
 30
0.0
 11
84.999999957473
 21
4.999999899150794
 31
0.0
  0
CIRCLE
  5
53AF
  8
0
 10
67.78396403654466
 20
12.49999989915085
 30
0.0
 40
1.25
  0
CIRCLE
  5
53B0
  8
0
 10
67.78396403654466
 20
12.49999989915085
 30
0.0
 40
0.6249999999999999
  0
LINE
  5
53B1
  8
0
 10
67.78396403654466
 20
13.99999989915085
 30
0.0
 11
67.78396403654466
 21
10.99999989915085
 31
0.0
  0
LINE
  5
53B2
  8
0
 10
66.28396403654466
 20
12.49999989915085
 30
0.0
 11
69.28396403654466
 21
12.49999989915085
 31
0.0
  0
LINE
  5
53B3
  8
0
 10
71.86588837198138
 20
13.12499989915085
 30
0.0
 11
71.86588837198138
 21
11.87499989915085
 31
0.0
  0
LINE
  5
53B4
  8
0
 10
74.36588837198138
 20
13.74999989915085
 30
0.0
 11
74.36588837198138
 21
11.24999989915085
 31
0.0
  0
LINE
  5
53B5
  8
0
 10
71.86588837198138
 20
11.87499989915085
 30
0.0
 11
74.36588837198138
 21
11.24999989915085
 31
0.0
  0
LINE
  5
53B6
  8
0
 10
71.86588837198138
 20
13.12499989915085
 30
0.0
 11
74.36588837198138
 21
13.74999989915085
 31
0.0
  0
LINE
  5
53B7
  8
0
 10
71.61588837198138
 20
12.49999989915085
 30
0.0
 11
74.61588837198138
 21
12.49999989915085
 31
0.0
  0
TEXT
  5
53B8
  8
0
  6
CONTINUOUS
 10
45.81909173785112
 20
11.07414956284532
 30
0.0
 40
2.5
  1
日 付
 41
0.5
  0
TEXT
  5
53B9
  8
0
  6
CONTINUOUS
 10
45.81909173785112
 20
6.074149562845264
 30
0.0
 40
2.5
  1
製 \U+56F3
 41
0.5
  0
TEXT
  5
53BA
  8
0
  6
CONTINUOUS
 10
52.7276588792559
 20
0.5788914071627573
 30
0.0
 40
3.5
  1
日機株式\U+4F1A社
 41
1.5
  0
TEXT
  5
53BB
  8
0
  6
CONTINUOUS
 10
63.31909173785112
 20
6.074149562845264
 30
0.0
 40
2.5
  1
\U+691C \U+56F3
 41
0.5
  0
TEXT
  5
53BC
  8
0
  6
CONTINUOUS
 10
80.81909173785112
 20
11.07414956284532
 30
0.0
 40
2.5
  1
尺 度
 41
0.5
  0
TEXT
  5
53BD
  8
0
  6
CONTINUOUS
 10
80.81909173785112
 20
6.074149562845264
 30
0.0
 40
2.5
  1
承 認
 41
0.5
  0
TEXT
  5
53BE
  8
0
  6
CONTINUOUS
 10
98.31909173785112
 20
11.07414956284532
 30
0.0
 40
2.5
  1
品 名
 41
0.5
  0
TEXT
  5
53BF
  8
0
  6
CONTINUOUS
 10
98.31909173785112
 20
1.185169465835315
 30
0.0
 40
2.5
  1
\U+56F3 面 番 \U+53F7
 41
0.5
  0
LINE
  5
53C0
  8
FRAME
 10
79.999999957473
 20
14.99999989915085
 30
0.0
 11
79.999999957473
 21
4.999999899150851
 31
0.0
  0
LINE
  5
53C1
  8
FRAME
 10
44.99999995747299
 20
14.99999989915085
 30
0.0
 11
44.99999995747299
 21
-0.0000001008491495
 31
0.0
  0
TEXT
  5
53C2
  8
0
  6
CONTINUOUS
 10
52.21172593928651
 20
11.07414956284532
 30
0.0
 40
2.5
  1
2010.05.19
 41
0.5
  7
TW
  0
TEXT
  5
53C3
  8
0
  6
CONTINUOUS
 10
52.07246274657069
 20
6.074149562845264
 30
0.0
 40
2.5
  1
林 彥 旭
 41
0.5
  7
TW
  0
TEXT
  5
53C4
  8
0
  6
CONTINUOUS
 10
88.15660882566641
 20
11.07414956284532
 30
0.0
 40
2.5
  1
NOT/S
 41
0.5
  7
TW
  0
TEXT
  5
53C5
  8
0
  6
CONTINUOUS
 10
120.8190917378511
 20
11.07414956284532
 30
0.0
 40
2.5
  1
型 番
 41
0.5
  0
TEXT
  5
53C6
  8
0
  6
CONTINUOUS
 10
125.8190917378511
 20
1.074149562845321
 30
0.0
 40
2.5
  1
\U+5909 更
 41
0.5
  0
TEXT
  5
53C7
  8
0
  6
CONTINUOUS
 10
125.904248913425
 20
6.074149562845264
 30
0.0
 40
2.5
  1
NNPT3/8-50S
 41
0.5
  0
TEXT
  5
53C8
  8
0
  6
CONTINUOUS
 10
111.4327141309889
 20
1.185169465835315
 30
0.0
 40
2.5
  1
NP80049
 41
0.5
  0
TEXT
  5
53C9
  8
0
  6
CONTINUOUS
 10
105.4110179367726
 20
6.058415091407348
 30
0.0
 40
2.5
  1
PF \U+30CE\U+30BA\U+30EB
 41
0.5
  0
INSERT
  5
53CA
  8
DIM
  2
*X52
 10
0.0
 20
0.0
 30
0.0
  0
LINE
  5
53CB
  8
CONTOUR
 10
40.16886498118754
 20
52.84874002219016
 30
0.0
 11
40.16886498118754
 21
42.04874002218997
 31
0.0
  0
LINE
  5
53CC
  8
CONTOUR
 10
40.16886498118754
 20
42.04874002218997
 30
0.0
 11
36.16886498118754
 21
41.09874002219038
 31
0.0
  0
LINE
  5
53CD
  8
CONTOUR
 10
34.16886498118754
 20
45.9205367919148
 30
0.0
 11
25.16886498118754
 21
45.9205367919148
 31
0.0
  0
LINE
  5
53CE
  8
CONTOUR
 10
25.16886498118754
 20
45.9205367919148
 30
0.0
 11
25.16886498118754
 21
38.99233356163921
 31
0.0
  0
LINE
  5
53CF
  8
CONTOUR
 10
25.16886498118754
 20
38.99233356163921
 30
0.0
 11
34.16886498118754
 21
38.99233356163921
 31
0.0
  0
LINE
  5
53D0
  8
CONTOUR
 10
25.16886498118777
 20
52.8487400221897
 30
0.0
 11
25.16886498118754
 21
45.9205367919148
 31
0.0
  0
LINE
  5
53D1
  8
CONTOUR
 10
36.16886498118754
 20
52.84874002218993
 30
0.0
 11
36.16886498118754
 21
41.09874002219038
 31
0.0
  0
POLYLINE
  5
53D2
  8
CONTOUR
 66
     1
 10
0.0
 20
0.0
 30
0.0
  0
VERTEX
  5
5A03
  8
CONTOUR
 10
34.16886498118754
 20
38.99233356163921
 30
0.0
  0
VERTEX
  5
5A04
  8
CONTOUR
 10
34.60601077445748
 20
39.47931832368665
 30
0.0
  0
VERTEX
  5
5A05
  8
CONTOUR
 10
34.97246923544379
 20
39.94340187883301
 30
0.0
  0
VERTEX
  5
5A06
  8
CONTOUR
 10
35.27396004107174
 20
40.38882894908639
 30
0.0
  0
VERTEX
  5
5A07
  8
CONTOUR
 10
35.51499867552315
 20
40.81935576887277
 30
0.0
  0
VERTEX
  5
5A08
  8
CONTOUR
 10
35.69907383209075
 20
41.23836566858868
 30
0.0
  0
VERTEX
  5
5A09
  8
CONTOUR
 10
35.82877810824412
 20
41.648964236662
 30
0.0
  0
VERTEX
  5
5A0A
  8
CONTOUR
 10
35.9059014634411
 20
42.05405999378102
 30
0.0
  0
VERTEX
  5
5A0B
  8
CONTOUR
 10
35.93149389001149
 20
42.45643517677703
 30
0.0
  0
VERTEX
  5
5A0C
  8
CONTOUR
 10
35.90590146344111
 20
42.85881035977306
 30
0.0
  0
VERTEX
  5
5A0D
  8
CONTOUR
 10
35.82877810824412
 20
43.2639061168921
 30
0.0
  0
VERTEX
  5
5A0E
  8
CONTOUR
 10
35.69907383209076
 20
43.67450468496543
 30
0.0
  0
VERTEX
  5
5A0F
  8
CONTOUR
 10
35.51499867552315
 20
44.09351458468135
 30
0.0
  0
VERTEX
  5
5A10
  8
CONTOUR
 10
35.27396004107174
 20
44.52404140446775
 30
0.0
  0
VERTEX
  5
5A11
  8
CONTOUR
 10
34.97246923544378
 20
44.96946847472116
 30
0.0
  0
VERTEX
  5
5A12
  8
CONTOUR
 10
34.60601077445747
 20
45.43355202986755
 30
0.0
  0
VERTEX
  5
5A13
  8
CONTOUR
 10
34.16886498118754
 20
45.92053679191503
 30
0.0
  0
SEQEND
  5
5AC4
  8
CONTOUR
  0
POLYLINE
  5
53D3
  8
CONTOUR
 66
     1
 10
0.0
 20
0.0
 30
0.0
  0
VERTEX
  5
5A14
  8
CONTOUR
 10
34.16886498118754
 20
45.92053679191457
 30
0.0
  0
VERTEX
  5
5A15
  8
CONTOUR
 10
34.39668432531289
 20
46.41382300733294
 30
0.0
  0
VERTEX
  5
5A16
  8
CONTOUR
 10
34.60601077445774
 20
46.89450631600956
 30
0.0
  0
VERTEX
  5
5A17
  8
CONTOUR
 10
34.79768776725678
 20
47.36375863376277
 30
0.0
  0
VERTEX
  5
5A18
  8
CONTOUR
 10
34.97246923544424
 20
47.82267342630234
 30
0.0
  0
VERTEX
  5
5A19
  8
CONTOUR
 10
35.13102748921309
 20
48.27227513264295
 30
0.0
  0
VERTEX
  5
5A1A
  8
CONTOUR
 10
35.27396004107234
 20
48.71352756680913
 30
0.0
  0
VERTEX
  5
5A1B
  8
CONTOUR
 10
35.40179550375941
 20
49.14734145040826
 30
0.0
  0
VERTEX
  5
5A1C
  8
CONTOUR
 10
35.51499867552382
 20
49.57458120638191
 30
0.0
  0
VERTEX
  5
5A1D
  8
CONTOUR
 10
35.61397490748588
 20
49.99607112595925
 30
0.0
  0
VERTEX
  5
5A1E
  8
CONTOUR
 10
35.69907383209143
 20
50.41260100581365
 30
0.0
  0
VERTEX
  5
5A1F
  8
CONTOUR
 10
35.77059251836412
 20
50.82493134009804
 30
0.0
  0
VERTEX
  5
5A20
  8
CONTOUR
 10
35.82877810824475
 20
51.2337981419602
 30
0.0
  0
VERTEX
  5
5A21
  8
CONTOUR
 10
35.87382997842709
 20
51.63991746095485
 30
0.0
  0
VERTEX
  5
5A22
  8
CONTOUR
 10
35.90590146344165
 20
52.04398965619817
 30
0.0
  0
VERTEX
  5
5A23
  8
CONTOUR
 10
35.92510116804426
 20
52.44670347992997
 30
0.0
  0
VERTEX
  5
5A24
  8
CONTOUR
 10
35.93149389001189
 20
52.84874002219004
 30
0.0
  0
SEQEND
  5
5AC5
  8
CONTOUR
  0
LINE
  5
53D4
  8
CONTOUR
 10
36.16886498118754
 20
41.09874002219038
 30
0.0
 11
34.16886498118754
 21
38.99233356163921
 31
0.0
  0
ARC
  5
53D5
  8
CONTOUR
 10
34.81886498118763
 20
52.84874002219084
 30
0.0
 40
9.5
 50
304.2744697726231
 51
329.673021903247
  0
LINE
  5
53D6
  8
CONTOUR
 10
69.91424418747256
 20
37.98463840705134
 30
0.0
 11
70.18744926822932
 21
38.05784348780836
 31
0.0
  0
LINE
  5
53D7
  8
CONTOUR
 10
69.91424418747236
 20
37.98463840705145
 30
0.0
 11
51.09706821146297
 21
48.84874002218919
 31
0.0
  0
LINE
  5
53D8
  8
BOWEL
 10
70.41424418747236
 20
38.85066381083588
 30
0.0
 11
51.36501740389408
 21
49.84874002218919
 31
0.0
  0
LINE
  5
53D9
  8
CENTER
 10
73.81950007579817
 20
40.34874002218918
 30
0.0
 11
52.16886498118733
 21
52.84874002218927
 31
0.0
  0
LINE
  5
53DA
  8
CONTOUR
 10
43.01886498118768
 20
48.0518660401064
 30
0.0
 11
43.01886498118768
 21
52.84874002218925
 31
0.0
  0
LINE
  5
53DB
  8
CONTOUR
 10
12.16886498118754
 20
59.96436502218972
 30
0.0
 11
12.16886498118754
 21
45.73311502218934
 31
0.0
  0
LINE
  5
53DC
  8
CONTOUR
 10
23.66886498118754
 20
44.34874002218959
 30
0.0
 11
24.36886498118781
 21
44.34874002218959
 31
0.0
  0
LINE
  5
53DD
  8
CONTOUR
 10
23.66886498118754
 20
52.84874002218936
 30
0.0
 11
23.66886498118754
 21
44.34874002218959
 31
0.0
  0
LINE
  5
53DE
  8
CONTOUR
 10
13.05247788441318
 20
44.84950211896381
 30
0.0
 11
23.66886498118754
 21
44.51774002218957
 31
0.0
  0
LINE
  5
53DF
  8
CONTOUR
 62
     4
 10
12.16886498118754
 20
45.73311502218957
 30
0.0
 11
22.1013872700513
 21
45.42272370066274
 31
0.0
  0
LINE
  5
53E0
  8
CONTOUR
 10
12.16886498118754
 20
45.73311502218957
 30
0.0
 11
13.05247788441318
 21
44.84950211896358
 31
0.0
  0
LINE
  5
53E1
  8
CONTOUR
 62
     4
 10
22.10138727005176
 20
45.42272370066252
 30
0.0
 11
23.66886498118754
 21
44.51774002218957
 31
0.0
  0
ARC
  5
53E2
  8
CONTOUR
 10
24.3688649811869
 20
43.54874002218918
 30
0.0
 40
0.8
 50
0.0
 51
90.0
  0
LINE
  5
53E3
  8
CONTOUR
 10
22.1013872700513
 20
44.56672370066264
 30
0.0
 11
22.1013872700513
 21
52.84874002218936
 31
0.0
  0
LINE
  5
53E4
  8
CONTOUR
 10
13.05247788441318
 20
44.84950211896381
 30
0.0
 11
13.05247788441318
 21
52.84874002218947
 31
0.0
  0
LINE
  5
53E5
  8
CONTOUR
 10
40.16886498118754
 20
52.84874002218822
 30
0.0
 11
40.16886498118754
 21
63.64874002218841
 31
0.0
  0
LINE
  5
53E6
  8
CONTOUR
 10
40.16886498118754
 20
63.64874002218841
 30
0.0
 11
36.16886498118754
 21
64.598740022188
 31
0.0
  0
LINE
  5
53E7
  8
CONTOUR
 10
34.16886498118754
 20
59.77694325246358
 30
0.0
 11
25.16886498118754
 21
59.77694325246358
 31
0.0
  0
LINE
  5
53E8
  8
CONTOUR
 10
25.16886498118754
 20
59.77694325246358
 30
0.0
 11
25.16886498118754
 21
66.70514648273917
 31
0.0
  0
LINE
  5
53E9
  8
CONTOUR
 10
25.16886498118754
 20
66.70514648273917
 30
0.0
 11
34.16886498118754
 21
66.70514648273917
 31
0.0
  0
LINE
  5
53EA
  8
CONTOUR
 10
25.16886498118777
 20
52.84874002218868
 30
0.0
 11
25.16886498118754
 21
59.77694325246358
 31
0.0
  0
LINE
  5
53EB
  8
CONTOUR
 10
36.16886498118754
 20
52.84874002218845
 30
0.0
 11
36.16886498118754
 21
64.598740022188
 31
0.0
  0
POLYLINE
  5
53EC
  8
CONTOUR
 66
     1
 10
0.0
 20
0.0
 30
0.0
  0
VERTEX
  5
5A25
  8
CONTOUR
 10
34.16886498118754
 20
66.70514648273917
 30
0.0
  0
VERTEX
  5
5A26
  8
CONTOUR
 10
34.60601077445748
 20
66.21816172069171
 30
0.0
  0
VERTEX
  5
5A27
  8
CONTOUR
 10
34.97246923544379
 20
65.75407816554535
 30
0.0
  0
VERTEX
  5
5A28
  8
CONTOUR
 10
35.27396004107174
 20
65.30865109529198
 30
0.0
  0
VERTEX
  5
5A29
  8
CONTOUR
 10
35.51499867552315
 20
64.87812427550557
 30
0.0
  0
VERTEX
  5
5A2A
  8
CONTOUR
 10
35.69907383209075
 20
64.45911437578965
 30
0.0
  0
VERTEX
  5
5A2B
  8
CONTOUR
 10
35.82877810824412
 20
64.04851580771636
 30
0.0
  0
VERTEX
  5
5A2C
  8
CONTOUR
 10
35.9059014634411
 20
63.64342005059731
 30
0.0
  0
VERTEX
  5
5A2D
  8
CONTOUR
 10
35.93149389001149
 20
63.24104486760129
 30
0.0
  0
VERTEX
  5
5A2E
  8
CONTOUR
 10
35.90590146344111
 20
62.83866968460528
 30
0.0
  0
VERTEX
  5
5A2F
  8
CONTOUR
 10
35.82877810824412
 20
62.43357392748624
 30
0.0
  0
VERTEX
  5
5A30
  8
CONTOUR
 10
35.69907383209076
 20
62.02297535941293
 30
0.0
  0
VERTEX
  5
5A31
  8
CONTOUR
 10
35.51499867552315
 20
61.603965459697
 30
0.0
  0
VERTEX
  5
5A32
  8
CONTOUR
 10
35.27396004107174
 20
61.1734386399106
 30
0.0
  0
VERTEX
  5
5A33
  8
CONTOUR
 10
34.97246923544378
 20
60.72801156965719
 30
0.0
  0
VERTEX
  5
5A34
  8
CONTOUR
 10
34.60601077445747
 20
60.26392801451082
 30
0.0
  0
VERTEX
  5
5A35
  8
CONTOUR
 10
34.16886498118754
 20
59.77694325246336
 30
0.0
  0
SEQEND
  5
5AC6
  8
CONTOUR
  0
POLYLINE
  5
53ED
  8
CONTOUR
 66
     1
 10
0.0
 20
0.0
 30
0.0
  0
VERTEX
  5
5A36
  8
CONTOUR
 10
34.16886498118754
 20
59.77694325246381
 30
0.0
  0
VERTEX
  5
5A37
  8
CONTOUR
 10
34.39668432531289
 20
59.28365703704543
 30
0.0
  0
VERTEX
  5
5A38
  8
CONTOUR
 10
34.60601077445774
 20
58.80297372836886
 30
0.0
  0
VERTEX
  5
5A39
  8
CONTOUR
 10
34.79768776725678
 20
58.33372141061565
 30
0.0
  0
VERTEX
  5
5A3A
  8
CONTOUR
 10
34.97246923544424
 20
57.87480661807606
 30
0.0
  0
VERTEX
  5
5A3B
  8
CONTOUR
 10
35.13102748921309
 20
57.42520491173546
 30
0.0
  0
VERTEX
  5
5A3C
  8
CONTOUR
 10
35.27396004107234
 20
56.9839524775693
 30
0.0
  0
VERTEX
  5
5A3D
  8
CONTOUR
 10
35.40179550375941
 20
56.55013859397017
 30
0.0
  0
VERTEX
  5
5A3E
  8
CONTOUR
 10
35.51499867552382
 20
56.12289883799654
 30
0.0
  0
VERTEX
  5
5A3F
  8
CONTOUR
 10
35.61397490748588
 20
55.70140891841918
 30
0.0
  0
VERTEX
  5
5A40
  8
CONTOUR
 10
35.69907383209143
 20
55.28487903856477
 30
0.0
  0
VERTEX
  5
5A41
  8
CONTOUR
 10
35.77059251836412
 20
54.87254870428038
 30
0.0
  0
VERTEX
  5
5A42
  8
CONTOUR
 10
35.82877810824475
 20
54.46368190241822
 30
0.0
  0
VERTEX
  5
5A43
  8
CONTOUR
 10
35.87382997842709
 20
54.05756258342356
 30
0.0
  0
VERTEX
  5
5A44
  8
CONTOUR
 10
35.90590146344165
 20
53.65349038818024
 30
0.0
  0
VERTEX
  5
5A45
  8
CONTOUR
 10
35.92510116804426
 20
53.25077656444842
 30
0.0
  0
VERTEX
  5
5A46
  8
CONTOUR
 10
35.93149389001189
 20
52.84874002218834
 30
0.0
  0
SEQEND
  5
5AC7
  8
CONTOUR
  0
LINE
  5
53EE
  8
CONTOUR
 10
36.16886498118754
 20
64.598740022188
 30
0.0
 11
34.16886498118754
 21
66.70514648273917
 31
0.0
  0
ARC
  5
53EF
  8
CONTOUR
 10
34.81886498118763
 20
52.84874002218754
 30
0.0
 40
9.5
 50
30.32697809675296
 51
55.72553022737686
  0
LINE
  5
53F0
  8
CONTOUR
 10
73.91424418747273
 20
44.91284163732712
 30
0.0
 11
73.98744926822944
 21
44.63963655657028
 31
0.0
  0
LINE
  5
53F1
  8
CONTOUR
 10
73.91424418747253
 20
44.91284163732723
 30
0.0
 11
55.0970682114629
 21
55.77694325246472
 31
0.0
  0
LINE
  5
53F2
  8
BOWEL
 10
73.41424418747255
 20
44.04681623354279
 30
0.0
 11
54.5970682114629
 21
54.91091784868028
 31
0.0
  0
LINE
  5
53F3
  8
CONTOUR
 10
43.01886498118768
 20
57.64561400427198
 30
0.0
 11
43.01886498118768
 21
52.84874002218913
 31
0.0
  0
LINE
  5
53F4
  8
CONTOUR
 10
23.66886498118754
 20
61.34874002218879
 30
0.0
 11
24.36886498118781
 21
61.34874002218879
 31
0.0
  0
LINE
  5
53F5
  8
CONTOUR
 10
23.66886498118754
 20
52.84874002218902
 30
0.0
 11
23.66886498118754
 21
61.34874002218879
 31
0.0
  0
LINE
  5
53F6
  8
CONTOUR
 10
13.05247788441318
 20
60.84797792541457
 30
0.0
 11
23.66886498118754
 21
61.17974002218881
 31
0.0
  0
LINE
  5
53F7
  8
CONTOUR
 62
     4
 10
12.16886498118754
 20
59.96436502218882
 30
0.0
 11
22.1013872700513
 21
60.27475634371564
 31
0.0
  0
LINE
  5
53F8
  8
CONTOUR
 10
12.16886498118754
 20
59.96436502218882
 30
0.0
 11
13.05247788441318
 21
60.8479779254148
 31
0.0
  0
LINE
  5
53F9
  8
CONTOUR
 62
     4
 10
22.10138727005176
 20
60.27475634371586
 30
0.0
 11
23.66886498118754
 21
61.17974002218881
 31
0.0
  0
ARC
  5
53FA
  8
CONTOUR
 10
24.3688649811869
 20
62.1487400221892
 30
0.0
 40
0.8
 50
270.0
 51
0.0
  0
LINE
  5
53FB
  8
CONTOUR
 10
22.1013872700513
 20
61.13075634371575
 30
0.0
 11
22.1013872700513
 21
52.84874002218902
 31
0.0
  0
LINE
  5
53FC
  8
CONTOUR
 10
13.05247788441318
 20
60.84797792541457
 30
0.0
 11
13.05247788441318
 21
52.84874002218891
 31
0.0
  0
LINE
  5
53FD
  8
CENTER
 10
10.16886498118754
 20
52.84874002218925
 30
0.0
 11
52.16886498118755
 21
52.84874002218928
 31
0.0
  0
LINE
  5
53FE
  8
CONTOUR
 10
51.09706821146301
 20
56.84874002218913
 30
0.0
 11
43.01886498118769
 21
56.84874002218919
 31
0.0
  0
LINE
  5
53FF
  8
BOWEL
 10
51.097068211463
 20
55.84874002218913
 30
0.0
 11
43.01886498118768
 21
55.84874002218919
 31
0.0
  0
LINE
  5
5400
  8
CONTOUR
 10
51.09706821146297
 20
48.84874002218919
 30
0.0
 11
43.01886498118769
 21
48.84874002218919
 31
0.0
  0
LINE
  5
5401
  8
BOWEL
 10
51.36501740389408
 20
49.84874002218919
 30
0.0
 11
43.01886498118769
 21
49.84874002218919
 31
0.0
  0
ARC
  5
5402
  8
CONTOUR
 10
51.09706821146297
 20
48.84874002218919
 30
0.0
 40
7.999999999999973
 50
60.00000000000065
 51
89.99999999999959
  0
ARC
  5
5403
  8
BOWEL
 10
51.09706821146297
 20
48.84874002218919
 30
0.0
 40
6.999999999999973
 50
60.00000000000065
 51
89.99999999999959
  0
LINE
  5
5404
  8
CONTOUR
 10
70.18744926822932
 20
38.05784348780836
 30
0.0
 11
73.98744926822944
 21
44.63963655657028
 31
0.0
  0
LINE
  5
5405
  8
CONTOUR
 10
73.91424418747253
 20
44.91284163732723
 30
0.0
 11
69.91424418747232
 21
37.98463840705148
 31
0.0
  0
DIMENSION
  5
5406
  8
MARK
  2
*D16
 10
25.16886498118754
 20
71.52205229675275
 30
0.0
 11
18.66886498118754
 21
72.57205229675274
 31
0.0
 12
-0.0000000425271196
 22
-0.0000001008491495
 32
0.0
 70
     0
 13
12.16886498118754
 23
59.96436502218882
 33
0.0
 14
25.16886498118754
 24
66.70514648273917
 34
0.0
  0
DIMENSION
  5
5407
  8
MARK
  2
*D17
 10
52.16886498118755
 20
71.52205229675275
 30
0.0
 11
38.66886498118755
 21
72.57205229675274
 31
0.0
 12
-0.0000000425271196
 22
-0.0000001008491495
 32
0.0
 70
     0
 13
25.16886498118754
 23
66.70514648273917
 33
0.0
 14
52.16886498118755
 24
52.84874002218928
 34
0.0
  0
DIMENSION
  5
5408
  8
MARK
  2
*D18
 10
80.17323066951528
 20
55.35372422811177
 30
0.0
 11
70.7389385259943
 21
62.01305090208547
 31
0.0
 12
-0.0000000425271196
 22
-0.0000001008491495
 32
0.0
 70
     1
 13
52.16886498118733
 23
52.84874002218927
 33
0.0
 14
72.0874492682293
 24
41.34874002218918
 34
0.0
  0
DIMENSION
  5
5409
  8
MARK
  2
*D19
 10
52.16886498118755
 20
52.84874002218928
 30
0.0
 11
87.806283733127
 21
43.29972244727735
 31
0.0
 12
-0.0000000425271196
 22
-0.0000001008491495
 32
0.0
 70
     2
 13
80.46555358825029
 23
36.51163923772658
 33
0.0
 14
52.16886498118733
 24
52.84874002218927
 34
0.0
 15
10.16886498118754
 25
52.84874002218925
 35
0.0
 16
87.82509812811828
 26
39.87093249065055
 36
0.0
  0
POLYLINE
  5
540A
  8
CONTOUR
 66
     1
 10
0.0
 20
0.0
 30
0.0
  0
VERTEX
  5
5A47
  8
CONTOUR
 10
119.5103797703394
 20
41.29959313932225
 30
0.0
  0
VERTEX
  5
5A48
  8
CONTOUR
 10
127.5140889555402
 20
45.92053679191341
 30
0.0
  0
VERTEX
  5
5A49
  8
CONTOUR
 10
127.5140889555403
 20
59.7769432524639
 30
0.0
  0
VERTEX
  5
5A4A
  8
CONTOUR
 10
115.5140889555408
 20
66.70514648273917
 30
0.0
  0
VERTEX
  5
5A4B
  8
CONTOUR
 10
103.5140889555412
 20
59.77694325246393
 30
0.0
  0
VERTEX
  5
5A4C
  8
CONTOUR
 10
103.5140889555412
 20
45.92053679191344
 30
0.0
  0
VERTEX
  5
5A4D
  8
CONTOUR
 10
111.517798140742
 20
41.29959313932225
 30
0.0
  0
SEQEND
  5
5AC8
  8
CONTOUR
  0
ARC
  5
540B
  8
CONTOUR
 10
115.5140889555407
 20
52.84874002218868
 30
0.0
 40
11.74999999999923
 50
289.7236259787311
 51
250.2763740212689
  0
ARC
  5
540C
  8
CONTOUR
 10
115.5140889555407
 20
52.84874002218868
 30
0.0
 40
10.79999999999966
 50
291.7384607915237
 51
248.2615392084765
  0
ARC
  5
540D
  8
CONTOUR
 10
115.5140889555407
 20
52.84874002218868
 30
0.0
 40
7.850318464876452
 50
300.6327593416428
 51
239.3672406583573
  0
ARC
  5
540E
  8
CONTOUR
 10
115.5140889555407
 20
52.84874002218868
 30
0.0
 40
4.796873982083298
 50
326.4990217606089
 51
213.5009782393912
  0
ARC
  5
540F
  8
CONTOUR
 10
115.5140889555407
 20
52.84874002218868
 30
0.0
 40
4.000000000000412
 50
0.0000000000001018
 51
180.0000000000001
  0
LINE
  5
5410
  8
CONTOUR
 10
111.5140889555403
 20
52.84874002218868
 30
0.0
 11
111.5140889555403
 21
41.34874002218919
 31
0.0
  0
LINE
  5
5411
  8
CONTOUR
 10
119.5140889555412
 20
52.84874002218868
 30
0.0
 11
119.5140889555412
 21
41.34874002218919
 31
0.0
  0
POLYLINE
  5
5412
  8
CONTOUR
 66
     1
 10
0.0
 20
0.0
 30
0.0
 70
     1
  0
VERTEX
  5
5A4E
  8
CONTOUR
 10
111.5128391507918
 20
41.34874002218918
 30
0.0
  0
VERTEX
  5
5A4F
  8
CONTOUR
 10
111.5897220438267
 20
40.70671795757502
 30
0.0
  0
VERTEX
  5
5A50
  8
CONTOUR
 10
111.8174161564684
 20
40.08936844085386
 30
0.0
  0
VERTEX
  5
5A51
  8
CONTOUR
 10
112.1871713316605
 20
39.52041586773969
 30
0.0
  0
VERTEX
  5
5A52
  8
CONTOUR
 10
112.6847780853815
 20
39.02172476654503
 30
0.0
  0
VERTEX
  5
5A53
  8
CONTOUR
 10
113.2911136691468
 20
38.61245955661958
 30
0.0
  0
VERTEX
  5
5A54
  8
CONTOUR
 10
113.9828769465093
 20
38.30834807046221
 30
0.0
  0
VERTEX
  5
5A55
  8
CONTOUR
 10
114.7334838426653
 20
38.12107714193826
 30
0.0
  0
VERTEX
  5
5A56
  8
CONTOUR
 10
115.5140889555408
 20
38.05784348780814
 30
0.0
  0
VERTEX
  5
5A57
  8
CONTOUR
 10
116.2946940684162
 20
38.12107714193826
 30
0.0
  0
VERTEX
  5
5A58
  8
CONTOUR
 10
117.0453009645722
 20
38.30834807046222
 30
0.0
  0
VERTEX
  5
5A59
  8
CONTOUR
 10
117.7370642419347
 20
38.6124595566196
 30
0.0
  0
VERTEX
  5
5A5A
  8
CONTOUR
 10
118.3433998257001
 20
39.02172476654506
 30
0.0
  0
VERTEX
  5
5A5B
  8
CONTOUR
 10
118.841006579421
 20
39.52041586773972
 30
0.0
  0
VERTEX
  5
5A5C
  8
CONTOUR
 10
119.210761754613
 20
40.08936844085389
 30
0.0
  0
VERTEX
  5
5A5D
  8
CONTOUR
 10
119.4384558672548
 20
40.70671795757504
 30
0.0
  0
VERTEX
  5
5A5E
  8
CONTOUR
 10
119.5153387602897
 20
41.3487400221892
 30
0.0
  0
VERTEX
  5
5A5F
  8
CONTOUR
 10
119.4384558672548
 20
41.99076208680336
 30
0.0
  0
VERTEX
  5
5A60
  8
CONTOUR
 10
119.210761754613
 20
42.60811160352453
 30
0.0
  0
VERTEX
  5
5A61
  8
CONTOUR
 10
118.8410065794209
 20
43.17706417663869
 30
0.0
  0
VERTEX
  5
5A62
  8
CONTOUR
 10
118.3433998257
 20
43.67575527783335
 30
0.0
  0
VERTEX
  5
5A63
  8
CONTOUR
 10
117.7370642419347
 20
44.0850204877588
 30
0.0
  0
VERTEX
  5
5A64
  8
CONTOUR
 10
117.0453009645722
 20
44.38913197391618
 30
0.0
  0
VERTEX
  5
5A65
  8
CONTOUR
 10
116.2946940684161
 20
44.57640290244013
 30
0.0
  0
VERTEX
  5
5A66
  8
CONTOUR
 10
115.5140889555407
 20
44.63963655657024
 30
0.0
  0
VERTEX
  5
5A67
  8
CONTOUR
 10
114.7334838426653
 20
44.57640290244012
 30
0.0
  0
VERTEX
  5
5A68
  8
CONTOUR
 10
113.9828769465093
 20
44.38913197391616
 30
0.0
  0
VERTEX
  5
5A69
  8
CONTOUR
 10
113.2911136691467
 20
44.08502048775878
 30
0.0
  0
VERTEX
  5
5A6A
  8
CONTOUR
 10
112.6847780853814
 20
43.67575527783332
 30
0.0
  0
VERTEX
  5
5A6B
  8
CONTOUR
 10
112.1871713316605
 20
43.17706417663864
 30
0.0
  0
VERTEX
  5
5A6C
  8
CONTOUR
 10
111.8174161564684
 20
42.60811160352448
 30
0.0
  0
VERTEX
  5
5A6D
  8
CONTOUR
 10
111.5897220438267
 20
41.99076208680332
 30
0.0
  0
SEQEND
  5
5AC9
  8
CONTOUR
  0
POLYLINE
  5
5413
  8
CONTOUR
 66
     1
 10
0.0
 20
0.0
 30
0.0
 70
     1
  0
VERTEX
  5
5A6E
  8
CONTOUR
 10
111.5140889555403
 20
41.44874002218936
 30
0.0
  0
VERTEX
  5
5A6F
  8
CONTOUR
 10
111.5909478339274
 20
40.77292732259553
 30
0.0
  0
VERTEX
  5
5A70
  8
CONTOUR
 10
111.8185708254952
 20
40.12308572604697
 30
0.0
  0
VERTEX
  5
5A71
  8
CONTOUR
 10
112.1882105063302
 20
39.52418828066366
 30
0.0
  0
VERTEX
  5
5A72
  8
CONTOUR
 10
112.6856618307943
 20
38.99925027940613
 30
0.0
  0
VERTEX
  5
5A73
  8
CONTOUR
 10
113.2918080234621
 20
38.56844479527409
 30
0.0
  0
VERTEX
  5
5A74
  8
CONTOUR
 10
113.9833552260802
 20
38.24832744142423
 30
0.0
  0
VERTEX
  5
5A75
  8
CONTOUR
 10
114.7337276674761
 20
38.05120014824112
 30
0.0
  0
VERTEX
  5
5A76
  8
CONTOUR
 10
115.5140889555407
 20
37.98463840705153
 30
0.0
  0
VERTEX
  5
5A77
  8
CONTOUR
 10
116.2944502436053
 20
38.05120014824112
 30
0.0
  0
VERTEX
  5
5A78
  8
CONTOUR
 10
117.0448226850012
 20
38.24832744142423
 30
0.0
  0
VERTEX
  5
5A79
  8
CONTOUR
 10
117.7363698876194
 20
38.56844479527409
 30
0.0
  0
VERTEX
  5
5A7A
  8
CONTOUR
 10
118.3425160802872
 20
38.99925027940613
 30
0.0
  0
VERTEX
  5
5A7B
  8
CONTOUR
 10
118.8399674047512
 20
39.52418828066366
 30
0.0
  0
VERTEX
  5
5A7C
  8
CONTOUR
 10
119.2096070855862
 20
40.12308572604697
 30
0.0
  0
VERTEX
  5
5A7D
  8
CONTOUR
 10
119.437230077154
 20
40.77292732259553
 30
0.0
  0
VERTEX
  5
5A7E
  8
CONTOUR
 10
119.5140889555411
 20
41.44874002218936
 30
0.0
  0
VERTEX
  5
5A7F
  8
CONTOUR
 10
119.437230077154
 20
42.12455272178319
 30
0.0
  0
VERTEX
  5
5A80
  8
CONTOUR
 10
119.2096070855862
 20
42.77439431833175
 30
0.0
  0
VERTEX
  5
5A81
  8
CONTOUR
 10
118.8399674047512
 20
43.37329176371506
 30
0.0
  0
VERTEX
  5
5A82
  8
CONTOUR
 10
118.3425160802872
 20
43.89822976497258
 30
0.0
  0
VERTEX
  5
5A83
  8
CONTOUR
 10
117.7363698876193
 20
44.32903524910462
 30
0.0
  0
VERTEX
  5
5A84
  8
CONTOUR
 10
117.0448226850012
 20
44.64915260295448
 30
0.0
  0
VERTEX
  5
5A85
  8
CONTOUR
 10
116.2944502436053
 20
44.84627989613759
 30
0.0
  0
VERTEX
  5
5A86
  8
CONTOUR
 10
115.5140889555407
 20
44.91284163732718
 30
0.0
  0
VERTEX
  5
5A87
  8
CONTOUR
 10
114.7337276674761
 20
44.84627989613759
 30
0.0
  0
VERTEX
  5
5A88
  8
CONTOUR
 10
113.9833552260802
 20
44.64915260295447
 30
0.0
  0
VERTEX
  5
5A89
  8
CONTOUR
 10
113.2918080234621
 20
44.32903524910461
 30
0.0
  0
VERTEX
  5
5A8A
  8
CONTOUR
 10
112.6856618307942
 20
43.89822976497257
 30
0.0
  0
VERTEX
  5
5A8B
  8
CONTOUR
 10
112.1882105063302
 20
43.37329176371505
 30
0.0
  0
VERTEX
  5
5A8C
  8
CONTOUR
 10
111.8185708254952
 20
42.77439431833174
 30
0.0
  0
VERTEX
  5
5A8D
  8
CONTOUR
 10
111.5909478339274
 20
42.12455272178317
 30
0.0
  0
SEQEND
  5
5ACA
  8
CONTOUR
  0
POLYLINE
  5
5414
  8
CONTOUR
 66
     1
 10
0.0
 20
0.0
 30
0.0
 70
     1
  0
VERTEX
  5
5A8E
  8
CONTOUR
 10
112.5140889555403
 20
41.34874002218915
 30
0.0
  0
VERTEX
  5
5A8F
  8
CONTOUR
 10
112.5717331143307
 20
40.8418804974938
 30
0.0
  0
VERTEX
  5
5A90
  8
CONTOUR
 10
112.7424503580065
 20
40.35449930008239
 30
0.0
  0
VERTEX
  5
5A91
  8
CONTOUR
 10
113.0196801186328
 20
39.90532621604491
 30
0.0
  0
VERTEX
  5
5A92
  8
CONTOUR
 10
113.3927686119808
 20
39.51162271510178
 30
0.0
  0
VERTEX
  5
5A93
  8
CONTOUR
 10
113.8473782564817
 20
39.18851860200276
 30
0.0
  0
VERTEX
  5
5A94
  8
CONTOUR
 10
114.3660386584453
 20
38.94843058661537
 30
0.0
  0
VERTEX
  5
5A95
  8
CONTOUR
 10
114.9288179894923
 20
38.80058511672804
 30
0.0
  0
VERTEX
  5
5A96
  8
CONTOUR
 10
115.5140889555407
 20
38.75066381083585
 30
0.0
  0
VERTEX
  5
5A97
  8
CONTOUR
 10
116.0993599215892
 20
38.80058511672804
 30
0.0
  0
VERTEX
  5
5A98
  8
CONTOUR
 10
116.6621392526362
 20
38.94843058661537
 30
0.0
  0
VERTEX
  5
5A99
  8
CONTOUR
 10
117.1807996545998
 20
39.18851860200276
 30
0.0
  0
VERTEX
  5
5A9A
  8
CONTOUR
 10
117.6354092991007
 20
39.51162271510178
 30
0.0
  0
VERTEX
  5
5A9B
  8
CONTOUR
 10
118.0084977924487
 20
39.90532621604491
 30
0.0
  0
VERTEX
  5
5A9C
  8
CONTOUR
 10
118.285727553075
 20
40.35449930008239
 30
0.0
  0
VERTEX
  5
5A9D
  8
CONTOUR
 10
118.4564447967508
 20
40.8418804974938
 30
0.0
  0
VERTEX
  5
5A9E
  8
CONTOUR
 10
118.5140889555411
 20
41.34874002218915
 30
0.0
  0
VERTEX
  5
5A9F
  8
CONTOUR
 10
118.4564447967508
 20
41.85559954688451
 30
0.0
  0
VERTEX
  5
5AA0
  8
CONTOUR
 10
118.285727553075
 20
42.34298074429593
 30
0.0
  0
VERTEX
  5
5AA1
  8
CONTOUR
 10
118.0084977924487
 20
42.7921538283334
 30
0.0
  0
VERTEX
  5
5AA2
  8
CONTOUR
 10
117.6354092991007
 20
43.18585732927653
 30
0.0
  0
VERTEX
  5
5AA3
  8
CONTOUR
 10
117.1807996545998
 20
43.50896144237555
 30
0.0
  0
VERTEX
  5
5AA4
  8
CONTOUR
 10
116.6621392526362
 20
43.74904945776294
 30
0.0
  0
VERTEX
  5
5AA5
  8
CONTOUR
 10
116.0993599215892
 20
43.89689492765027
 30
0.0
  0
VERTEX
  5
5AA6
  8
CONTOUR
 10
115.5140889555407
 20
43.94681623354246
 30
0.0
  0
VERTEX
  5
5AA7
  8
CONTOUR
 10
114.9288179894923
 20
43.89689492765027
 30
0.0
  0
VERTEX
  5
5AA8
  8
CONTOUR
 10
114.3660386584453
 20
43.74904945776294
 30
0.0
  0
VERTEX
  5
5AA9
  8
CONTOUR
 10
113.8473782564817
 20
43.50896144237554
 30
0.0
  0
VERTEX
  5
5AAA
  8
CONTOUR
 10
113.3927686119808
 20
43.18585732927652
 30
0.0
  0
VERTEX
  5
5AAB
  8
CONTOUR
 10
113.0196801186328
 20
42.79215382833338
 30
0.0
  0
VERTEX
  5
5AAC
  8
CONTOUR
 10
112.7424503580065
 20
42.34298074429591
 30
0.0
  0
VERTEX
  5
5AAD
  8
CONTOUR
 10
112.5717331143307
 20
41.85559954688451
 30
0.0
  0
SEQEND
  5
5ACB
  8
CONTOUR
  0
LINE
  5
5415
  8
CENTER
 10
101.5140889555412
 20
52.84874002218869
 30
0.0
 11
129.5140889555403
 21
52.84874002218864
 31
0.0
  0
LINE
  5
5416
  8
CENTER
 10
115.5140889555408
 20
68.70514648273917
 30
0.0
 11
115.5140889555407
 21
35.98463840705153
 31
0.0
  0
DIMENSION
  5
5417
  8
MARK
  2
*D20
 10
127.5140889555403
 20
71.52205229675275
 30
0.0
 11
115.5140889555407
 21
72.57205229675274
 31
0.0
 12
-0.0000000425271196
 22
-0.0000001008491495
 32
0.0
 70
     0
 13
103.5140889555412
 23
59.77694325246393
 33
0.0
 14
127.5140889555403
 24
59.7769432524639
 34
0.0
  0
LINE
  5
5418
  8
MARK
 10
34.81886498118763
 20
52.84874002219277
 30
0.0
 11
47.27467086218124
 21
44.12709084984427
 31
0.0
  0
DIMENSION
  5
5419
  8
MARK
  2
*D21
 10
52.16886498118755
 20
52.84874002218928
 30
0.0
 11
62.37521466477504
 21
-32.0196121832991
 31
0.0
 12
-0.0000000425271196
 22
-0.0000001008491495
 32
0.0
 70
     2
  1
 
 13
34.81886498118763
 23
52.84874002219277
 33
0.0
 14
46.17460033260573
 24
44.89736852721535
 34
0.0
 15
10.16886498118754
 25
52.84874002218925
 35
0.0
 16
49.29423556469806
 26
49.85981642099529
 36
0.0
  0
TEXT
  5
541A
  8
MARK
  6
CONTINUOUS
 62
     3
 10
43.52439537504373
 20
41.3410253103235
 30
0.0
 40
1.25
  1
35°
 50
42.90784751135958
  0
ARC
  5
541B
  8
MARK
 10
34.81886498119766
 20
52.84874002218577
 30
0.0
 40
14.78073130205635
 50
302.9680835396198
 51
355.1530757965168
  0
LINE
  5
541C
  8
MARK
 10
34.81886498118763
 20
52.84874002218575
 30
0.0
 11
47.27467086218124
 21
61.57038919453426
 31
0.0
  0
DIMENSION
  5
541D
  8
MARK
  2
*D22
 10
52.16886498118755
 20
52.84874002218925
 30
0.0
 11
-38.43026389728435
 21
63.80345728458434
 31
0.0
 12
-0.0000000425271196
 22
-0.0000001008491495
 32
0.0
 70
     2
  1
 
 13
34.81886498118763
 23
52.84874002218575
 33
0.0
 14
46.17460033260573
 24
60.80011151716317
 34
0.0
 15
10.16886498118754
 25
52.84874002218928
 35
0.0
 16
49.29423556469808
 26
55.83766362338326
 36
0.0
  0
ARC
  5
541E
  8
MARK
 10
34.81886498119766
 20
52.84874002219276
 30
0.0
 40
14.78073130205635
 50
4.846924203483442
 51
57.03191646038015
  0
TEXT
  5
541F
  8
MARK
  6
CONTINUOUS
 62
     3
 10
45.47879237290128
 20
62.57394980561502
 30
0.0
 40
1.25
  1
35°
 50
138.1751801502868
  0
DIMENSION
  5
5420
  8
MARK
  2
*D23
 10
75.48935958485254
 20
35.92054456998993
 30
0.0
 11
76.080032910879
 21
39.04362078134338
 31
0.0
 12
-0.0000000425271196
 22
-0.0000001008491495
 32
0.0
 70
     1
  1
%%C<>
 13
73.41424418747255
 23
44.04681623354279
 33
0.0
 14
70.41424418747232
 24
38.8506638108359
 34
0.0
  0
DIMENSION
  5
5421
  8
MARK
  2
*D24
 10
82.46555358825034
 20
39.97574085286451
 30
0.0
 11
79.55622691427664
 21
37.03663923772658
 31
0.0
 12
-0.0000000425271196
 22
-0.0000001008491495
 32
0.0
 70
     1
  1
%%C<>
 13
69.91424418747236
 23
37.98463840705145
 33
0.0
 14
73.91424418747248
 24
44.91284163732728
 34
0.0
  0
INSERT
  5
5422
  8
MARK
  2
*X53
 10
0.0
 20
0.0
 30
0.0
  0
TEXT
  5
5423
  8
MARK
  6
CONTINUOUS
 62
     3
 10
11.67553587481333
 20
34.71773088525043
 30
0.0
 40
1.25
  1
PT3/8
  0
ENDBLK
  8
0
  0
BLOCK
  8
0
  2
*D36
 70
     1
 10
0.0
 20
0.0
 30
0.0
  0
LINE
  5
5784
  8
標註線
 10
162.7413023189055
 20
60.33765178189105
 30
0.0
 11
159.6789132982958
 21
60.33765178189105
 31
0.0
  0
LINE
  5
5785
  8
標註線
 10
162.7413023189052
 20
54.33765178189106
 30
0.0
 11
159.6789132982958
 21
54.33765178189106
 31
0.0
  0
LINE
  5
5786
  8
標註線
 10
160.0989132982957
 20
59.08765178189105
 30
0.0
 11
160.0989132982957
 21
55.58765178189106
 31
0.0
  0
INSERT
  5
5787
  8
標註線
  2
_OPEN30
 10
160.0989132982957
 20
60.33765178189105
 30
0.0
 41
1.25
 42
1.25
 43
1.25
 50
90.0
  0
INSERT
  5
5788
  8
標註線
  2
_OPEN30
 10
160.0989132982957
 20
54.33765178189106
 30
0.0
 41
1.25
 42
1.25
 43
1.25
 50
270.0
  0
TEXT
  5
5789
  8
標註線
  6
CONTINUOUS
 62
     3
 10
159.6789132982958
 20
56.29598511522443
 30
0.0
 40
1.25
  1
\U+22056
 50
90.0
  0
POINT
  5
578A
  8
DEFPOINTS
 62
     0
 10
163.1613023189055
 20
60.33765178189105
 30
0.0
  0
POINT
  5
578B
  8
DEFPOINTS
 62
     0
 10
163.1613023189052
 20
54.33765178189106
 30
0.0
  0
POINT
  5
578C
  8
DEFPOINTS
 62
     0
 10
160.0989132982957
 20
54.33765178189106
 30
0.0
  0
ENDBLK
  8
0
  0
BLOCK
  8
0
  2
*D37
 70
     1
 10
0.0
 20
0.0
 30
0.0
  0
LINE
  5
57DF
  8
MARK
 10
172.6613023189052
 20
67.57190416299234
 30
0.0
 11
172.6613023189052
 21
75.38869846180641
 31
0.0
  0
LINE
  5
57E0
  8
MARK
 10
162.6613023189056
 20
61.77572897701323
 30
0.0
 11
162.6613023189056
 21
75.38869846180641
 31
0.0
  0
LINE
  5
57E1
  8
MARK
 10
171.4113023189052
 20
74.96869846180641
 30
0.0
 11
163.9113023189056
 21
74.96869846180641
 31
0.0
  0
INSERT
  5
57E2
  8
MARK
  2
_OPEN30
 10
172.6613023189052
 20
74.96869846180641
 30
0.0
 41
1.25
 42
1.25
 43
1.25
  0
INSERT
  5
57E3
  8
MARK
  2
_OPEN30
 10
162.6613023189056
 20
74.96869846180641
 30
0.0
 41
1.25
 42
1.25
 43
1.25
 50
180.0
  0
TEXT
  5
57E4
  8
MARK
  6
CONTINUOUS
 62
     3
 10
166.9321356522387
 20
75.38869846180641
 30
0.0
 40
1.25
  1
10
  0
POINT
  5
57E5
  8
DEFPOINTS
 62
     0
 10
172.6613023189052
 20
67.15190416299234
 30
0.0
  0
POINT
  5
57E6
  8
DEFPOINTS
 62
     0
 10
162.6613023189056
 20
61.35572897701323
 30
0.0
  0
POINT
  5
57E7
  8
DEFPOINTS
 62
     0
 10
162.6613023189056
 20
74.96869846180641
 30
0.0
  0
ENDBLK
  8
0
  0
BLOCK
  8
0
  2
*D38
 70
     1
 10
0.0
 20
0.0
 30
0.0
  0
LINE
  5
57E8
  8
MARK
 10
172.6613023189052
 20
67.57190416299234
 30
0.0
 11
172.6613023189052
 21
75.38869846180641
 31
0.0
  0
LINE
  5
57E9
  8
MARK
 10
232.6613023189058
 20
60.5569495867659
 30
0.0
 11
232.6613023189058
 21
75.38869846180641
 31
0.0
  0
LINE
  5
57EA
  8
MARK
 10
173.9113023189052
 20
74.96869846180641
 30
0.0
 11
231.4113023189058
 21
74.96869846180641
 31
0.0
  0
INSERT
  5
57EB
  8
MARK
  2
_OPEN30
 10
172.6613023189052
 20
74.96869846180641
 30
0.0
 41
1.25
 42
1.25
 43
1.25
 50
180.0
  0
INSERT
  5
57EC
  8
MARK
  2
_OPEN30
 10
232.6613023189058
 20
74.96869846180641
 30
0.0
 41
1.25
 42
1.25
 43
1.25
  0
TEXT
  5
57ED
  8
MARK
  6
CONTINUOUS
 62
     3
 10
201.7238023189055
 20
75.38869846180641
 30
0.0
 40
1.25
  1
60
  0
POINT
  5
57EE
  8
DEFPOINTS
 62
     0
 10
172.6613023189052
 20
67.15190416299234
 30
0.0
  0
POINT
  5
57EF
  8
DEFPOINTS
 62
     0
 10
232.6613023189058
 20
60.1369495867659
 30
0.0
  0
POINT
  5
57F0
  8
DEFPOINTS
 62
     0
 10
232.6613023189058
 20
74.96869846180641
 30
0.0
  0
ENDBLK
  8
0
  0
BLOCK
  8
0
  2
*D39
 70
     1
 10
0.0
 20
0.0
 30
0.0
  0
LINE
  5
57B1
  8
MARK
 10
162.6613023189056
 20
61.77572897701323
 30
0.0
 11
162.6613023189056
 21
81.01560333943199
 31
0.0
  0
LINE
  5
57B2
  8
MARK
 10
232.6613023189058
 20
60.55694958676592
 30
0.0
 11
232.6613023189058
 21
81.01560333943199
 31
0.0
  0
LINE
  5
57B3
  8
MARK
 10
163.9113023189056
 20
80.59560333943199
 30
0.0
 11
231.4113023189058
 21
80.59560333943199
 31
0.0
  0
INSERT
  5
57B4
  8
MARK
  2
_OPEN30
 10
162.6613023189056
 20
80.59560333943199
 30
0.0
 41
1.25
 42
1.25
 43
1.25
 50
180.0
  0
INSERT
  5
57B5
  8
MARK
  2
_OPEN30
 10
232.6613023189058
 20
80.59560333943199
 30
0.0
 41
1.25
 42
1.25
 43
1.25
  0
TEXT
  5
57B6
  8
MARK
  6
CONTINUOUS
 62
     3
 10
196.7238023189057
 20
81.01560333943199
 30
0.0
 40
1.25
  1
70
  0
POINT
  5
57B7
  8
DEFPOINTS
 62
     0
 10
162.6613023189056
 20
61.35572897701323
 30
0.0
  0
POINT
  5
57B8
  8
DEFPOINTS
 62
     0
 10
232.6613023189058
 20
60.13694958676592
 30
0.0
  0
POINT
  5
57B9
  8
DEFPOINTS
 62
     0
 10
232.6613023189058
 20
80.59560333943199
 30
0.0
  0
ENDBLK
  8
0
  0
BLOCK
  8
0
  2
*D40
 70
     1
 10
0.0
 20
0.0
 30
0.0
  0
LINE
  5
57CD
  8
MARK
 10
250.949890601994
 20
62.66442687488059
 30
0.0
 11
250.949890601994
 21
70.57994184322861
 31
0.0
  0
LINE
  5
57CE
  8
MARK
 10
267.9498906019941
 20
62.66442687488059
 30
0.0
 11
267.9498906019941
 21
70.57994184322861
 31
0.0
  0
LINE
  5
57CF
  8
MARK
 10
252.199890601994
 20
70.15994184322861
 30
0.0
 11
266.6998906019941
 21
70.15994184322861
 31
0.0
  0
INSERT
  5
57D0
  8
MARK
  2
_OPEN30
 10
250.949890601994
 20
70.15994184322861
 30
0.0
 41
1.25
 42
1.25
 43
1.25
 50
180.0
  0
INSERT
  5
57D1
  8
MARK
  2
_OPEN30
 10
267.9498906019941
 20
70.15994184322861
 30
0.0
 41
1.25
 42
1.25
 43
1.25
  0
TEXT
  5
57D2
  8
MARK
  6
CONTINUOUS
 62
     3
 10
258.6165572686608
 20
70.57994184322861
 30
0.0
 40
1.25
  1
17
  0
POINT
  5
57D3
  8
DEFPOINTS
 62
     0
 10
250.949890601994
 20
62.24442687488059
 30
0.0
  0
POINT
  5
57D4
  8
DEFPOINTS
 62
     0
 10
267.9498906019941
 20
62.24442687488059
 30
0.0
  0
POINT
  5
57D5
  8
DEFPOINTS
 62
     0
 10
267.9498906019941
 20
70.15994184322861
 30
0.0
  0
ENDBLK
  8
0
  0
BLOCK
  8
0
  2
*D41
 70
     1
 10
0.0
 20
0.0
 30
0.0
  0
LINE
  5
578D
  8
標註線
 10
233.0813023189056
 20
55.33694958676619
 30
0.0
 11
237.414888705422
 21
55.33694958676619
 31
0.0
  0
LINE
  5
578E
  8
標註線
 10
233.0813023189056
 20
59.33694958676619
 30
0.0
 11
237.414888705422
 21
59.33694958676619
 31
0.0
  0
LINE
  5
578F
  8
標註線
 10
236.994888705422
 20
56.58694958676619
 30
0.0
 11
236.994888705422
 21
58.08694958676619
 31
0.0
  0
INSERT
  5
5790
  8
標註線
  2
_OPEN30
 10
236.994888705422
 20
55.33694958676619
 30
0.0
 41
1.25
 42
1.25
 43
1.25
 50
270.0
  0
INSERT
  5
5791
  8
標註線
  2
_OPEN30
 10
236.994888705422
 20
59.33694958676619
 30
0.0
 41
1.25
 42
1.25
 43
1.25
 50
90.0
  0
TEXT
  5
5792
  8
標註線
  6
CONTINUOUS
 62
     3
 10
236.574888705422
 20
56.29528292009957
 30
0.0
 40
1.25
  1
\U+22054
 50
90.0
  0
POINT
  5
5793
  8
DEFPOINTS
 62
     0
 10
232.6613023189056
 20
55.33694958676619
 30
0.0
  0
POINT
  5
5794
  8
DEFPOINTS
 62
     0
 10
232.6613023189056
 20
59.33694958676619
 30
0.0
  0
POINT
  5
5795
  8
DEFPOINTS
 62
     0
 10
236.994888705422
 20
59.33694958676619
 30
0.0
  0
ENDBLK
  8
0
  0
BLOCK
  8
0
  2
*D42
 70
     1
 10
0.0
 20
0.0
 30
0.0
  0
LINE
  5
5796
  8
標註線
 10
232.8813023189056
 20
60.33694958676607
 30
0.0
 11
240.6975048993476
 21
60.33694958676607
 31
0.0
  0
LINE
  5
5797
  8
標註線
 10
232.8813023189056
 20
54.33694958676623
 30
0.0
 11
240.6975048993476
 21
54.33694958676622
 31
0.0
  0
LINE
  5
5798
  8
標註線
 10
240.2775048993476
 20
59.08694958676607
 30
0.0
 11
240.2775048993476
 21
55.58694958676622
 31
0.0
  0
INSERT
  5
5799
  8
標註線
  2
_OPEN30
 10
240.2775048993476
 20
60.33694958676607
 30
0.0
 41
1.25
 42
1.25
 43
1.25
 50
90.0
  0
INSERT
  5
579A
  8
標註線
  2
_OPEN30
 10
240.2775048993476
 20
54.33694958676622
 30
0.0
 41
1.25
 42
1.25
 43
1.25
 50
270.0
  0
TEXT
  5
579B
  8
標註線
  6
CONTINUOUS
 62
     3
 10
239.8575048993477
 20
56.29528292009954
 30
0.0
 40
1.25
  1
\U+22056
 50
90.0
  0
POINT
  5
579C
  8
DEFPOINTS
 62
     0
 10
232.4613023189056
 20
60.33694958676607
 30
0.0
  0
POINT
  5
579D
  8
DEFPOINTS
 62
     0
 10
232.4613023189056
 20
54.33694958676623
 30
0.0
  0
POINT
  5
579E
  8
DEFPOINTS
 62
     0
 10
240.2775048993476
 20
54.33694958676622
 30
0.0
  0
ENDBLK
  8
0
  0
BLOCK
  8
0
  2
*D43
 70
     1
 10
0.0
 20
0.0
 30
0.0
  0
LINE
  5
57BA
  8
MARK
 10
192.5813023189056
 20
57.33694958676887
 30
0.0
 11
204.2557162851342
 21
57.33694958676885
 31
0.0
  0
ARC
  5
57BB
  8
MARK
 10
179.9113023189062
 20
57.33694958676885
 30
0.0
 40
23.92441396622793
 50
327.993923833014
 51
357.0060761669859
  0
INSERT
  5
57BC
  8
MARK
  2
_OPEN30
 10
199.509034927758
 20
43.61446948223264
 30
0.0
 41
1.25
 42
1.25
 43
1.25
 50
236.496961916507
  0
INSERT
  5
57BD
  8
MARK
  2
_OPEN30
 10
203.8357162851342
 20
57.33694958676885
 30
0.0
 41
1.25
 42
1.25
 43
1.25
 50
88.50303808349294
  0
TEXT
  5
57BE
  8
MARK
  6
CONTINUOUS
 62
     3
 10
201.8893310449575
 20
48.87819877333368
 30
0.0
 40
1.25
  1
35°
 50
72.49999999999999
  0
POINT
  5
57BF
  8
DEFPOINTS
 62
     0
 10
201.8790845703681
 20
47.86097330040135
 30
0.0
  0
POINT
  5
57C0
  8
DEFPOINTS
 62
     0
 10
192.1613023189056
 20
57.33694958676885
 30
0.0
  0
POINT
  5
57C1
  8
DEFPOINTS
 62
     0
 10
179.9113023189061
 20
57.33694958676896
 30
0.0
  0
POINT
  5
57C2
  8
DEFPOINTS
 62
     0
 10
201.1291765025279
 20
42.48003413861181
 30
0.0
  0
POINT
  5
57C3
  8
DEFPOINTS
 62
     0
 10
161.6613023189051
 20
57.33694958676885
 30
0.0
  0
ENDBLK
  8
0
  0
BLOCK
  8
0
  2
*D44
 70
     1
 10
0.0
 20
0.0
 30
0.0
  0
LINE
  5
57D6
  8
MARK
 10
192.5813023189056
 20
57.33694958676885
 30
0.0
 11
204.2557162851339
 21
57.33694958676884
 31
0.0
  0
ARC
  5
57D7
  8
MARK
 10
179.9113023189062
 20
57.33694958676884
 30
0.0
 40
23.92441396622765
 50
2.993923833014072
 51
32.0060761669859
  0
INSERT
  5
57D8
  8
MARK
  2
_OPEN30
 10
203.8357162851339
 20
57.33694958676884
 30
0.0
 41
1.25
 42
1.25
 43
1.25
 50
271.4969619165071
  0
INSERT
  5
57D9
  8
MARK
  2
_OPEN30
 10
199.5090349277577
 20
71.05942969130489
 30
0.0
 41
1.25
 42
1.25
 43
1.25
 50
123.5030380834929
  0
POINT
  5
57DA
  8
DEFPOINTS
 62
     0
 10
203.341452767968
 20
62.1748864984861
 30
0.0
  0
POINT
  5
57DB
  8
DEFPOINTS
 62
     0
 10
192.1613023189056
 20
57.33694958676884
 30
0.0
  0
POINT
  5
57DC
  8
DEFPOINTS
 62
     0
 10
179.9113023189061
 20
57.33694958676872
 30
0.0
  0
POINT
  5
57DD
  8
DEFPOINTS
 62
     0
 10
201.1291765025279
 20
72.19386503492588
 30
0.0
  0
POINT
  5
57DE
  8
DEFPOINTS
 62
     0
 10
161.6613023189051
 20
57.33694958676884
 30
0.0
  0
ENDBLK
  8
0
  0
BLOCK
  8
0
  2
*X47
 70
     1
 10
0.0
 20
0.0
 30
0.0
  0
TEXT
  5
59EB
  8
0
  6
CONTINUOUS
 10
265.9042488394479
 20
6.074149561654764
 30
0.0
 40
2.5
  1
NNPT
 41
0.5
  7
JP
  0
TEXT
  5
59EC
  8
0
  6
CONTINUOUS
 10
270.9042488394479
 20
6.074149561654764
 30
0.0
 40
2.5
  1
1/8-60
 41
0.5
  0
ENDBLK
  8
0
  0
BLOCK
  8
0
  2
*X48
 70
     1
 10
0.0
 20
0.0
 30
0.0
  0
TEXT
  5
59EE
  8
0
  6
CONTINUOUS
 10
251.4327140570119
 20
1.185169464644815
 30
0.0
 40
2.5
  1
NP800
 41
0.5
  7
JP
  0
TEXT
  5
59EF
  8
0
  6
CONTINUOUS
 10
257.2660473903452
 20
1.185169464644815
 30
0.0
 40
2.5
  1
62
 41
0.5
  0
ENDBLK
  8
0
  0
BLOCK
  8
0
  2
*X49
 70
     1
 10
0.0
 20
0.0
 30
0.0
  0
TEXT
  5
59F1
  8
DIM
  6
CONTINUOUS
 10
142.1685156950721
 20
12.31718594176115
 30
0.0
 40
2.5
  1
備考
  0
TEXT
  5
59F2
  8
DIM
  6
CONTINUOUS
 10
142.1685156950721
 20
8.900519275094485
 30
0.0
 40
1.75
  1
表面\U+51E6理:\U+9ED2染
  0
ENDBLK
  8
0
  0
BLOCK
  8
0
  2
*X50
 70
     1
 10
0.0
 20
0.0
 30
0.0
  0
INSERT
  5
59F4
  8
標註線
  2
_OPEN30
 10
167.2104484400699
 20
52.5964137704822
 30
0.0
 41
1.25
 42
1.25
 43
1.25
 50
45.0
  0
LINE
  5
59F5
  8
標註線
 10
166.3265649635867
 20
51.71253029399902
 30
0.0
 11
162.1360296801331
 21
47.52199501054534
 31
0.0
  0
LINE
  5
59F6
  8
標註線
 10
162.1360296801331
 20
47.52199501054534
 30
0.0
 11
155.1069364046827
 21
47.52199501054534
 31
0.0
  0
ENDBLK
  8
0
  0
BLOCK
  8
0
  2
*X51
 70
     1
 10
0.0
 20
0.0
 30
0.0
  0
TEXT
  5
59F8
  8
0
  6
CONTINUOUS
 10
211.0532139918934
 20
6.074149561654764
 30
0.0
 40
2.5
  1
李
 41
0.5
  7
JP
  0
TEXT
  5
59F9
  8
0
  6
CONTINUOUS
 10
212.09488065856
 20
6.074149561654764
 30
0.0
 40
2.5
  1
 \U+56FD 慶
 41
0.5
  0
ENDBLK
  8
0
  0
BLOCK
  8
0
  2
*X52
 70
     1
 10
0.0
 20
0.0
 30
0.0
  0
TEXT
  5
5A01
  8
DIM
  6
CONTINUOUS
 10
2.168515769049179
 20
12.31718594295165
 30
0.0
 40
2.5
  1
備考
  0
TEXT
  5
5A02
  8
DIM
  6
CONTINUOUS
 10
2.168515769049179
 20
8.900519276284985
 30
0.0
 40
1.75
  1
表面\U+51E6理:\U+9ED2染
  0
ENDBLK
  8
0
  0
BLOCK
  8
0
  2
*X53
 70
     1
 10
0.0
 20
0.0
 30
0.0
  0
INSERT
  5
5AAF
  8
MARK
  2
_OPEN30
 10
18.36067143280036
 20
44.68362107057669
 30
0.0
 41
1.25
 42
1.25
 43
1.25
 50
45.0
  0
LINE
  5
5AB0
  8
MARK
 10
17.47678795631717
 20
43.79973759409351
 30
0.0
 11
7.610710521178646
 21
33.93366015895498
 31
0.0
  0
LINE
  5
5AB1
  8
MARK
 10
7.610710521178646
 20
33.93366015895498
 30
0.0
 11
18.36186609899181
 21
33.93366015895498
 31
0.0
  0
ENDBLK
  8
0
  0
ENDSEC
  0
SECTION
  2
ENTITIES
  0
POLYLINE
  5
551B
  8
本體外線
 66
     1
 10
0.0
 20
0.0
 30
0.0
 70
     1
  0
VERTEX
  5
59E0
  8
本體外線
 10
250.949890601994
 20
52.42947229865686
 30
0.0
  0
VERTEX
  5
59E1
  8
本體外線
 10
259.4498906019941
 20
47.52199501054511
 30
0.0
  0
VERTEX
  5
59E2
  8
本體外線
 10
267.9498906019941
 20
52.42947229865686
 30
0.0
  0
VERTEX
  5
59E3
  8
本體外線
 10
267.9498906019941
 20
62.24442687488059
 30
0.0
  0
VERTEX
  5
59E4
  8
本體外線
 10
259.4498906019941
 20
67.15190416299234
 30
0.0
  0
VERTEX
  5
59E5
  8
本體外線
 10
250.949890601994
 20
62.24442687488059
 30
0.0
  0
SEQEND
  5
5AC0
  8
本體外線
  0
LINE
  5
551C
  8
中心線
 10
259.4498906019941
 20
46.36729447216592
 30
0.0
 11
259.4498906019941
 21
68.30660470137153
 31
0.0
  0
LINE
  5
551D
  8
中心線
 10
268.9498906019941
 20
57.33694958676872
 30
0.0
 11
249.949890601994
 21
57.33694958676872
 31
0.0
  0
CIRCLE
  5
551E
  8
本體外線
 10
259.4498906019941
 20
57.33694958676872
 30
0.0
 40
3.000000000000455
  0
CIRCLE
  5
551F
  8
本體外線
 10
259.4498906019941
 20
57.33694958676872
 30
0.0
 40
2.000000000000455
  0
CIRCLE
  5
5520
  8
本體外線
 10
259.4498906019941
 20
57.33694958676872
 30
0.0
 40
3.644516428828979
  0
CIRCLE
  5
5521
  8
本體外線
 10
259.4498906019941
 20
57.33694958676872
 30
0.0
 40
5.455272678794472
  0
CIRCLE
  5
5522
  8
本體外線
 10
259.4498906019941
 20
57.33694958676872
 30
0.0
 40
7.500000000000227
  0
CIRCLE
  5
5523
  8
本體外線
 10
259.4498906019941
 20
57.33694958676872
 30
0.0
 40
8.000000000000227
  0
LINE
  5
5524
  8
中心線
 10
233.6613023189056
 20
57.33694958676592
 30
0.0
 11
161.6613023189052
 21
57.33694958676884
 31
0.0
  0
LINE
  5
5525
  8
本體外線
 10
183.1613023189047
 20
64.83694958676892
 30
0.0
 11
183.1613023189056
 21
49.83694958676907
 31
0.0
  0
LINE
  5
5526
  8
本體外線
 10
172.6613023189061
 20
67.15190416299234
 30
0.0
 11
172.6613023189052
 21
47.52199501054534
 31
0.0
  0
LINE
  5
5527
  8
本體外線
 10
232.6613023189057
 20
60.13694958676593
 30
0.0
 11
232.6613023189055
 21
54.53694958676617
 31
0.0
  0
LINE
  5
5528
  8
本體外線
 10
180.1613023189056
 20
47.52199501054534
 30
0.0
 11
172.6613023189052
 21
47.52199501054534
 31
0.0
  0
LINE
  5
5529
  8
本體外線
 10
180.1613023189052
 20
47.52199501054511
 30
0.0
 11
180.6613023189052
 21
49.33694958676884
 31
0.0
  0
LINE
  5
552A
  8
本體外線
 10
180.6613023189052
 20
49.33694958676884
 30
0.0
 11
183.1613023189052
 21
49.83694958676884
 31
0.0
  0
LINE
  5
552B
  8
本體外線
 10
180.6613023189052
 20
65.33694958676884
 30
0.0
 11
180.6613023189052
 21
49.33694958676884
 31
0.0
  0
LINE
  5
552C
  8
本體外線
 10
179.4375631507632
 20
52.42947229865698
 30
0.0
 11
172.6613023189052
 21
52.42947229865709
 31
0.0
  0
ARC
  5
552D
  8
本體外線
 10
163.1613023189056
 20
57.33694958676895
 30
0.0
 40
16.99999999999989
 50
343.2213451190419
 51
16.77865488096062
  0
ARC
  5
552E
  8
本體外線
 10
175.6399001308518
 20
49.97573365460099
 30
0.0
 40
4.521402188053487
 50
327.1327677635043
 51
32.8672322364957
  0
LINE
  5
552F
  8
本體外線
 10
162.6613023189056
 20
61.35572897701323
 30
0.0
 11
162.6613023189047
 21
53.31957458676894
 31
0.0
  0
LINE
  5
5530
  8
本體內線
 10
163.1613023189048
 20
54.33765178189106
 30
0.0
 11
162.6613023189048
 21
53.83765178189108
 31
0.0
  0
LINE
  5
5531
  8
本體內線
 10
163.1613023189055
 20
60.33765178189104
 30
0.0
 11
162.6613023189056
 21
60.83765178189107
 31
0.0
  0
LINE
  5
5532
  8
本體外線
 10
232.4613023189057
 20
54.33694958678357
 30
0.0
 11
185.1113023189054
 21
54.33694958676861
 31
0.0
  0
LINE
  5
5533
  8
本體外線
 10
185.1113023189054
 20
53.69243315793997
 30
0.0
 11
185.1113023189054
 21
60.98146601559802
 31
0.0
  0
LINE
  5
5534
  8
本體外線
 10
232.6613023189056
 20
54.5369495867663
 30
0.0
 11
232.6613023189056
 21
60.13694958676604
 31
0.0
  0
LINE
  5
5535
  8
本體外線
 10
232.4613023189056
 20
54.33694958676623
 30
0.0
 11
232.6613023189056
 21
54.5369495867663
 31
0.0
  0
ARC
  5
5536
  8
本體外線
 10
179.9113023189061
 20
57.33694958676895
 30
0.0
 40
6.35
 50
300.7845365810458
 51
324.9745948331324
  0
LINE
  5
5537
  8
本體外線
 10
171.1613023189056
 20
52.47294958676858
 30
0.0
 11
163.2595945612343
 21
52.71987795419582
 31
0.0
  0
LINE
  5
5538
  8
本體外線
 62
     4
 10
170.097395134127
 20
53.0871966862932
 30
0.0
 11
162.6613023189047
 21
53.31957458676894
 31
0.0
  0
LINE
  5
5539
  8
本體外線
 10
162.6613023189052
 20
53.31817019652468
 30
0.0
 11
163.2595945612338
 21
52.71987795419605
 31
0.0
  0
LINE
  5
553A
  8
本體外線
 10
171.1613023189056
 20
52.33694958676975
 30
0.0
 11
171.1613023189056
 21
62.20094958676911
 31
0.0
  0
LINE
  5
553B
  8
本體外線
 10
171.1613023189056
 20
52.33694958676975
 30
0.0
 11
172.6613023189056
 21
52.33694958677009
 31
0.0
  0
LINE
  5
553C
  8
本體外線
 62
     4
 10
170.097395134127
 20
53.08719668629297
 30
0.0
 11
171.1613023189056
 21
52.47294958676858
 31
0.0
  0
LINE
  5
553D
  8
本體外線
 10
163.2595945612343
 20
52.71987795419582
 30
0.0
 11
163.2595945612338
 21
61.95402121934185
 31
0.0
  0
LINE
  5
553E
  8
本體外線
 10
170.097395134127
 20
52.50619668629295
 30
0.0
 11
170.097395134127
 21
62.16770248724477
 31
0.0
  0
LINE
  5
553F
  8
本體外線
 10
180.1613023189056
 20
67.15190416299234
 30
0.0
 11
172.6613023189052
 21
67.15190416299234
 31
0.0
  0
LINE
  5
5540
  8
本體外線
 10
180.1613023189052
 20
67.15190416299257
 30
0.0
 11
180.6613023189052
 21
65.33694958676884
 31
0.0
  0
LINE
  5
5541
  8
本體外線
 10
180.6613023189052
 20
65.33694958676884
 30
0.0
 11
183.1613023189052
 21
64.83694958676884
 31
0.0
  0
ARC
  5
5542
  8
本體外線
 10
175.6399001308518
 20
64.69816551893669
 30
0.0
 40
4.521402188053487
 50
327.1327677635041
 51
32.86723223649575
  0
LINE
  5
5543
  8
本體外線
 10
232.4613023189056
 20
60.33694958676262
 30
0.0
 11
185.1113023189054
 21
60.33694958676907
 31
0.0
  0
LINE
  5
5544
  8
本體外線
 10
232.6613023189056
 20
60.13694958676604
 30
0.0
 11
232.4613023189056
 21
60.33694958676607
 31
0.0
  0
ARC
  5
5545
  8
本體外線
 10
179.9113023189061
 20
57.33694958676872
 30
0.0
 40
6.35
 50
35.02540516686763
 51
59.21546341895235
  0
LINE
  5
5546
  8
本體外線
 10
171.1613023189056
 20
62.2009495867691
 30
0.0
 11
163.2595945612343
 21
61.95402121934185
 31
0.0
  0
LINE
  5
5547
  8
本體外線
 10
179.4375631507632
 20
62.2444268748807
 30
0.0
 11
172.6613023189052
 21
62.24442687488059
 31
0.0
  0
LINE
  5
5548
  8
本體外線
 62
     4
 10
170.097395134127
 20
61.45070248724566
 30
0.0
 11
162.6613023189047
 21
61.21832458676992
 31
0.0
  0
LINE
  5
5549
  8
本體外線
 10
171.1613023189056
 20
62.20094958676911
 30
0.0
 11
172.6613023189056
 21
62.20094958676877
 31
0.0
  0
LINE
  5
554A
  8
本體外線
 62
     4
 10
170.097395134127
 20
61.45070248724589
 30
0.0
 11
171.1613023189056
 21
62.06494958677028
 31
0.0
  0
LINE
  5
554B
  8
本體外線
 10
163.2595945612338
 20
61.95402121934185
 30
0.0
 11
162.6613023189056
 21
61.35572897701323
 31
0.0
  0
LINE
  5
554C
  8
本體內線
 10
185.1113023189054
 20
59.33694958676899
 30
0.0
 11
232.6613023189057
 21
59.336949586769
 31
0.0
  0
LINE
  5
554D
  8
本體內線
 10
185.1113023189054
 20
55.33694958676899
 30
0.0
 11
232.6613023189057
 21
55.336949586769
 31
0.0
  0
LINE
  5
554E
  8
本體內線
 10
163.1613023189055
 20
60.33765178189105
 30
0.0
 11
172.6613023189058
 21
60.33765178189063
 31
0.0
  0
LINE
  5
554F
  8
本體內線
 10
163.1613023189048
 20
54.33765178189106
 30
0.0
 11
172.6613023189055
 21
54.33765178189062
 31
0.0
  0
LINE
  5
5550
  8
本體內線
 10
163.1613023189055
 20
60.33765178189104
 30
0.0
 11
163.1613023189052
 21
54.33765178189105
 31
0.0
  0
DIMENSION
  5
5551
  8
標註線
  2
*D36
 10
160.0989132982957
 20
54.33765178189106
 30
0.0
 11
159.0539132982958
 21
57.33765178189109
 31
0.0
 70
    32
  1
%%C6
 13
163.1613023189055
 23
60.33765178189105
 33
0.0
 14
163.1613023189052
 24
54.33765178189106
 34
0.0
 50
90.0
  0
LINE
  5
5552
  8
本體外線
 10
232.4613023189056
 20
60.33694958676607
 30
0.0
 11
232.4613023189056
 21
54.33694958676623
 31
0.0
  0
DIMENSION
  5
5553
  8
標註線
  2
*D41
 10
236.994888705422
 20
59.33694958676619
 30
0.0
 11
235.949888705422
 21
57.33694958676622
 31
0.0
 70
    32
  1
%%C4
 13
232.6613023189056
 23
55.33694958676619
 33
0.0
 14
232.6613023189056
 24
59.33694958676619
 34
0.0
 50
90.0
  0
DIMENSION
  5
5554
  8
標註線
  2
*D42
 10
240.2775048993476
 20
54.33694958676622
 30
0.0
 11
239.2325048993476
 21
57.33694958676619
 31
0.0
 70
    32
  1
%%C6
 13
232.4613023189056
 23
60.33694958676607
 33
0.0
 14
232.4613023189056
 24
54.33694958676623
 34
0.0
 50
90.0
  0
TEXT
  5
5555
  8
標註線
  6
CONTINUOUS
 62
     3
 10
155.0956101768218
 20
48.64353992838581
 30
0.0
 40
1.25
  1
PT 1/8"
  0
POLYLINE
  5
5556
  8
FRAME
 66
     1
 10
0.0
 20
0.0
 30
0.0
 70
     1
  0
VERTEX
  5
59E6
  8
FRAME
 10
279.9999998834957
 20
-0.0000001020396496
 30
0.0
  0
VERTEX
  5
59E7
  8
FRAME
 10
279.9999998834957
 20
94.99999989796035
 30
0.0
  0
VERTEX
  5
59E8
  8
FRAME
 10
139.9999998834958
 20
94.99999989796035
 30
0.0
  0
VERTEX
  5
59E9
  8
FRAME
 10
139.9999998834958
 20
-0.0000001020396496
 30
0.0
  0
SEQEND
  5
5AC1
  8
FRAME
  0
LINE
  5
5557
  8
FRAME
 10
184.9999998834959
 20
4.99999989796035
 30
0.0
 11
279.9999998834957
 21
4.99999989796035
 31
0.0
  0
LINE
  5
5558
  8
FRAME
 10
184.9999998834959
 20
9.99999989796035
 30
0.0
 11
237.4999998834957
 21
9.99999989796035
 31
0.0
  0
LINE
  5
5559
  8
FRAME
 10
184.9999998834959
 20
14.99999989796035
 30
0.0
 11
279.9999998834957
 21
14.99999989796035
 31
0.0
  0
LINE
  5
555A
  8
FRAME
 10
264.9999998834957
 20
-0.0000001020396496
 30
0.0
 11
264.9999998834957
 21
4.99999989796035
 31
0.0
  0
LINE
  5
555B
  8
FRAME
 10
259.9999998834957
 20
4.99999989796035
 30
0.0
 11
259.9999998834957
 21
14.99999989796035
 31
0.0
  0
LINE
  5
555C
  8
FRAME
 10
237.4999998834957
 20
14.99999989796035
 30
0.0
 11
237.4999998834957
 21
-0.0000001020396496
 31
0.0
  0
LINE
  5
555D
  8
FRAME
 10
189.9999998834959
 20
14.99999989796035
 30
0.0
 11
189.9999998834959
 21
4.99999989796035
 31
0.0
  0
LINE
  5
555E
  8
FRAME
 10
202.4999998834959
 20
14.99999989796035
 30
0.0
 11
202.4999998834959
 21
4.99999989796035
 31
0.0
  0
LINE
  5
555F
  8
FRAME
 10
207.4999998834959
 20
9.99999989796035
 30
0.0
 11
207.4999998834959
 21
4.99999989796035
 31
0.0
  0
LINE
  5
5560
  8
FRAME
 10
224.9999998834959
 20
14.99999989796035
 30
0.0
 11
224.9999998834959
 21
4.999999897960294
 31
0.0
  0
CIRCLE
  5
5561
  8
0
 10
207.7839639625676
 20
12.49999989796035
 30
0.0
 40
1.25
  0
CIRCLE
  5
5562
  8
0
 10
207.7839639625676
 20
12.49999989796035
 30
0.0
 40
0.6249999999999999
  0
LINE
  5
5563
  8
0
 10
207.7839639625676
 20
13.99999989796035
 30
0.0
 11
207.7839639625676
 21
10.99999989796035
 31
0.0
  0
LINE
  5
5564
  8
0
 10
206.2839639625676
 20
12.49999989796035
 30
0.0
 11
209.2839639625676
 21
12.49999989796035
 31
0.0
  0
LINE
  5
5565
  8
0
 10
211.8658882980043
 20
13.12499989796035
 30
0.0
 11
211.8658882980043
 21
11.87499989796035
 31
0.0
  0
LINE
  5
5566
  8
0
 10
214.3658882980043
 20
13.74999989796035
 30
0.0
 11
214.3658882980043
 21
11.24999989796035
 31
0.0
  0
LINE
  5
5567
  8
0
 10
211.8658882980043
 20
11.87499989796035
 30
0.0
 11
214.3658882980043
 21
11.24999989796035
 31
0.0
  0
LINE
  5
5568
  8
0
 10
211.8658882980043
 20
13.12499989796035
 30
0.0
 11
214.3658882980043
 21
13.74999989796035
 31
0.0
  0
LINE
  5
5569
  8
0
 10
211.6158882980043
 20
12.49999989796035
 30
0.0
 11
214.6158882980043
 21
12.49999989796035
 31
0.0
  0
TEXT
  5
556A
  8
0
  6
CONTINUOUS
 10
185.819091663874
 20
11.07414956165482
 30
0.0
 40
2.5
  1
日 付
 41
0.5
  0
TEXT
  5
556B
  8
0
  6
CONTINUOUS
 10
185.819091663874
 20
6.074149561654764
 30
0.0
 40
2.5
  1
製 \U+56F3
 41
0.5
  0
TEXT
  5
556C
  8
0
  6
CONTINUOUS
 10
192.7276588052788
 20
0.5788914059722572
 30
0.0
 40
3.5
  1
日機株式\U+4F1A社
 41
1.5
  0
TEXT
  5
556D
  8
0
  6
CONTINUOUS
 10
203.319091663874
 20
6.074149561654764
 30
0.0
 40
2.5
  1
\U+691C \U+56F3
 41
0.5
  0
TEXT
  5
556E
  8
0
  6
CONTINUOUS
 10
220.819091663874
 20
11.07414956165482
 30
0.0
 40
2.5
  1
尺 度
 41
0.5
  0
TEXT
  5
556F
  8
0
  6
CONTINUOUS
 10
220.819091663874
 20
6.074149561654764
 30
0.0
 40
2.5
  1
承 認
 41
0.5
  0
TEXT
  5
5570
  8
0
  6
CONTINUOUS
 10
238.319091663874
 20
11.07414956165482
 30
0.0
 40
2.5
  1
品 名
 41
0.5
  0
TEXT
  5
5571
  8
0
  6
CONTINUOUS
 10
238.319091663874
 20
1.185169464644815
 30
0.0
 40
2.5
  1
\U+56F3 面 番 \U+53F7
 41
0.5
  0
LINE
  5
5572
  8
FRAME
 10
219.9999998834959
 20
14.99999989796035
 30
0.0
 11
219.9999998834959
 21
4.99999989796035
 31
0.0
  0
LINE
  5
5573
  8
FRAME
 10
184.9999998834959
 20
14.99999989796035
 30
0.0
 11
184.9999998834959
 21
-0.0000001020396496
 31
0.0
  0
TEXT
  5
5574
  8
0
  6
CONTINUOUS
 10
192.2117258653094
 20
11.07414956165482
 30
0.0
 40
2.5
  1
2012.10.01
 41
0.5
  7
TW
  0
TEXT
  5
5575
  8
0
  6
CONTINUOUS
 10
192.2555544405132
 20
6.074149561654764
 30
0.0
 40
2.5
  1
林 彥 旭
 41
0.5
  7
TW
  0
TEXT
  5
5576
  8
0
  6
CONTINUOUS
 10
228.1566087516893
 20
11.07414956165482
 30
0.0
 40
2.5
  1
NOT/S
 41
0.5
  7
TW
  0
TEXT
  5
5577
  8
0
  6
CONTINUOUS
 10
260.819091663874
 20
11.07414956165482
 30
0.0
 40
2.5
  1
型 番
 41
0.5
  0
TEXT
  5
5578
  8
0
  6
CONTINUOUS
 10
265.819091663874
 20
1.074149561654821
 30
0.0
 40
2.5
  1
\U+5909 更
 41
0.5
  0
INSERT
  5
5579
  8
0
  2
*X47
 10
0.0
 20
0.0
 30
0.0
  0
INSERT
  5
557A
  8
0
  2
*X48
 10
0.0
 20
0.0
 30
0.0
  0
TEXT
  5
557B
  8
0
  6
CONTINUOUS
 10
245.4110178627955
 20
6.058415090216847
 30
0.0
 40
2.5
  1
PF \U+30CE\U+30BA\U+30EB
 41
0.5
  0
INSERT
  5
557C
  8
DIM
  2
*X49
 10
0.0
 20
0.0
 30
0.0
  0
DIMENSION
  5
557D
  8
MARK
  2
*D37
 10
162.6613023189056
 20
74.96869846180641
 30
0.0
 11
167.6613023189054
 21
76.01369846180641
 31
0.0
 70
    32
 13
172.6613023189052
 23
67.15190416299234
 33
0.0
 14
162.6613023189056
 24
61.35572897701323
 34
0.0
  0
DIMENSION
  5
557E
  8
MARK
  2
*D38
 10
232.6613023189058
 20
74.96869846180641
 30
0.0
 11
202.6613023189055
 21
76.01369846180641
 31
0.0
 70
    32
 13
172.6613023189052
 23
67.15190416299234
 33
0.0
 14
232.6613023189058
 24
60.1369495867659
 34
0.0
  0
DIMENSION
  5
557F
  8
MARK
  2
*D39
 10
232.6613023189058
 20
80.59560333943199
 30
0.0
 11
197.6613023189057
 21
80.59560333943199
 31
0.0
 70
   160
 13
162.6613023189056
 23
61.35572897701323
 33
0.0
 14
232.6613023189058
 24
60.13694958676592
 34
0.0
  0
LINE
  5
5580
  8
MARK
 10
179.9113023189061
 20
57.33694958676895
 30
0.0
 11
200.1806777380995
 21
43.1441801234471
 31
0.0
  0
DIMENSION
  5
5581
  8
MARK
  2
*D43
 10
161.6613023189052
 20
57.33694958676884
 30
0.0
 11
201.7317872416835
 21
50.45697711786503
 31
0.0
 70
    34
 13
179.9113023189061
 23
57.33694958676895
 33
0.0
 14
201.1291765025279
 24
42.4800341386118
 34
0.0
 15
192.1613023189056
 25
57.33694958676884
 35
0.0
 16
201.8790845703681
 26
47.86097330040135
 36
0.0
  0
DIMENSION
  5
5584
  8
MARK
  2
*D44
 10
161.6613023189052
 20
57.33694958676884
 30
0.0
 11
1.848710962499084
 21
212.6265392481958
 31
0.0
 70
    34
  1
 
 13
179.9113023189061
 23
57.33694958676872
 33
0.0
 14
201.1291765025279
 24
72.19386503492588
 34
0.0
 15
192.1613023189056
 25
57.33694958676884
 35
0.0
 16
203.341452767968
 26
62.1748864984861
 36
0.0
  0
LINE
  5
5587
  8
MARK
 10
179.9113023189061
 20
57.33694958676872
 30
0.0
 11
200.1806777380995
 21
71.52971905009058
 31
0.0
  0
TEXT
  5
5588
  8
MARK
  6
CONTINUOUS
 62
     3
 10
202.2177481103389
 20
63.01402596051885
 30
0.0
 40
1.25
  1
35°
 50
107.5
  0
INSERT
  5
5589
  8
標註線
  2
*X50
 10
0.0
 20
0.0
 30
0.0
  0
DIMENSION
  5
558A
  8
MARK
  2
*D40
 10
267.9498906019941
 20
70.15994184322861
 30
0.0
 11
259.4498906019941
 21
71.20494184322861
 31
0.0
 70
    32
 13
250.949890601994
 23
62.24442687488059
 33
0.0
 14
267.9498906019941
 24
62.24442687488059
 34
0.0
  0
INSERT
  5
558B
  8
0
  2
*X51
 10
0.0
 20
0.0
 30
0.0
  0
ENDSEC
  0
EOF
